logo
Международный русскоязычный
торрент-трекер
Menu
"Бунт на корабле", за скачанные торрент-файлы дублоны не снимаются. Возможность оплачена пользователем glazik9090.
Doublon
Поделиться с друзьями: 
Голосуй за Корсар и получи 500 дублонов
Рейтинг торрент трекеров - UpTracker.ru

Орнифль (2004, Телеспектакль, комедия, DVB)| Московский театр Сатиры

Сообщение mister Pitkin » 13 фев 2017, 11:51

Орнифль (2 серии)

Название театра: Московский акдемический театр Сатиры
Жанр: комедия
Год выпуска: 2004
Продолжительность: 01:03:50 + 00:56:41

Режиссёр: Сергей Арцибашев
В ролях: Александр Ширвиндт, Станислав Николаев, Александр Диденко, Вера Васильева, Светлана Рябова, Зинаида Матросова, Юлия Пивень, Юрий Авшаров, Александр Воеводин, Николай Пеньков

Описание: Телеверсия спектакля Московского театра Сатиры. Запись 2004 года.
По пьесе Жана Ануя "Орнифль, или Сквозной ветерок".
История современного Дон Жуана. Орнифль - модный парижский поэт, который, отдавая себе отчет в собственной бездарности, с одинаковой легкостью сочиняет куплеты для варьете и псалмы. Он не ведает вдохновения, но в совершенстве владеет ремеслом.

Релиз: by Cheef mate
Качество видео: DVB
Формат видео: MPEG-PS
Аудио кодек: MP2
Видео кодек: MPEG-2
Видео: MPEG Video, 720x576 (4 : 3), 25,000 кадров/сек, 5358 Кбит/сек
Аудио: MPEG Audio, 48,0 КГц, 256 Кбит/сек, 2 канала
Общее
Полное имя : E:\Torrent\Орнифль\Орнифль 1.mpg
Формат : MPEG-PS
Размер файла : 2,55 Гбайт
Продолжительность : 1 ч. 3 м.
Режим общего битрейта : Переменный
Общий поток : 5728 Кбит/сек

Видео
Идентификатор : 224 (0xE0)
Формат : MPEG Video
Версия формата : Version 2
Профиль формата : Main@Main
Параметр BVOP формата : Да
Параметр матрицы формата : Выборочная
Параметр GOP формата : M=2, N=12
Продолжительность : 1 ч. 3 м.
Вид битрейта : Переменный
Битрейт : 5358 Кбит/сек
Максимальный битрейт : 10000 Кбит/сек
Ширина : 720 пикселей
Высота : 576 пикселей
Соотношение сторон : 4:3
Частота кадров : 25,000 кадров/сек
Стандарт вещания : PAL
Цветовое пространство : YUV
Субдискретизация насыщенности : 4:2:0
Битовая глубина : 8 бит
Тип развёртки : Чересстрочная
Порядок развёртки : Верхнее поле первое
Метод сжатия : С потерями
Бит/(Пиксели*Кадры) : 0.517
Размер потока : 2,39 Гбайт (94%)

Аудио
Идентификатор : 192 (0xC0)
Формат : MPEG Audio
Версия формата : Version 1
Профиль формата : Layer 2
Продолжительность : 1 ч. 3 м.
Вид битрейта : Постоянный
Битрейт : 256 Кбит/сек
Каналы : 2 канала
Частота : 48,0 КГц
Метод сжатия : С потерями
Размер потока : 117 Мбайт (4%)

Общее
Полное имя : E:\Torrent\Орнифль\Орнифль 2.mpg
Формат : MPEG-PS
Размер файла : 2,25 Гбайт
Продолжительность : 56 м.
Режим общего битрейта : Переменный
Общий поток : 5728 Кбит/сек

Видео
Идентификатор : 224 (0xE0)
Формат : MPEG Video
Версия формата : Version 2
Профиль формата : Main@Main
Параметр BVOP формата : Да
Параметр матрицы формата : Выборочная
Продолжительность : 56 м.
Вид битрейта : Переменный
Битрейт : 5358 Кбит/сек
Максимальный битрейт : 10000 Кбит/сек
Ширина : 720 пикселей
Высота : 576 пикселей
Соотношение сторон : 4:3
Частота кадров : 25,000 кадров/сек
Стандарт вещания : PAL
Цветовое пространство : YUV
Субдискретизация насыщенности : 4:2:0
Битовая глубина : 8 бит
Тип развёртки : Чересстрочная
Порядок развёртки : Верхнее поле первое
Метод сжатия : С потерями
Бит/(Пиксели*Кадры) : 0.517
Размер потока : 2,10 Гбайт (94%)

Аудио
Идентификатор : 192 (0xC0)
Формат : MPEG Audio
Версия формата : Version 1
Профиль формата : Layer 2
Продолжительность : 56 м.
Вид битрейта : Постоянный
Битрейт : 256 Кбит/сек
Каналы : 2 канала
Частота : 48,0 КГц
Метод сжатия : С потерями
Размер потока : 103 Мбайт (4%)
СТАЖ

МЕДАЛИ
Награды:8

За отличные раздачи и качество (4)

Аватара пользователя
mister Pitkin
Опытный Релизёр-Корсар
  • Торрент
Для скачивания торрента необходимо зарегистрироваться или войти на трекер.

Вернуться в Фильмы-спектакли, театральные постановки



Uptime по данным Ping-Admin.Ru - сервиса мониторинга доступности сайтов
Рейтинг@Mail.ru