logo
Международный русскоязычный
торрент-трекер
Menu

Doublon
Поделиться с друзьями: 
Голосуй за Корсар и получи 400 дублонов
Рейтинг торрент трекеров - UpTracker.ru

Опасно для жизни! (1985, комедия, DVDRip-AVC)

Сообщение Korsar » 28 янв 2017, 10:15

Опасно для жизни!

Жанр: комедия
Год выпуска: 1985
Продолжительность: 01:27:46
Режиссёр: Леонид Гайдай
В ролях:
Леонид Куравлёв, Лариса Удовиченко, Татьяна Кравченко, Георгий Вицин, Тамаз Толорая, Нина Гребешкова, Борислав Брондуков, Владимир Носик, Михаил Кокшенов, Сергей Филиппов

Описание:
Спартак Молодцов - человек предельно аккуратный, непримиримый к любому беспорядку. Обнаружив однажды оборванный провод высоковольтной линии, он, разумеется, не мог пройти мимо. Но, как известно, «ни одно доброе дело не остается безнаказанным»..
| Сэмпл | Кинопоиск
Качество видео: DVDRip-AVC
Формат видео: MKV, спасибо namefortorrents

Видео: x264 (High@L4.1); 712@1098x432, Display aspect ratio 2.542:1, 25.000 fps, 2176 Kbps
Аудио: Оригинал AC-3; 16 bit 48 Khz; 2ch 192 Kbps; CBR.
* Исправлена издательская ошибка аспекта.
** Сравнение с предыдущей раздачей по аспекту.
*** Картинку доработал, стала немного аккуратнее. Без --mbtree и присущего ему хулиганства на фэйдах.
Предыдущий рип ------------------- Исходник --------------------- Текущий рип

avs [info]: 712x432p 822:533 @ 25/1 fps (cfr)
x264 [info]: using SAR=822/533
x264 [info]: using cpu capabilities: MMX2 SSE2Fast SSSE3 SSE4.2
x264 [info]: profile High, level 4.1

x264 [info]: frame I:824 Avg QP:18.09 size: 52739
x264 [info]: frame P:31246 Avg QP:20.27 size: 21212
x264 [info]: frame B:99593 Avg QP:22.51 size: 7292
x264 [info]: consecutive B-frames: 2.5% 3.4% 8.6% 31.6% 16.0% 33.5% 3.4% 0.9% 0.2%
x264 [info]: mb I I16..4: 2.9% 81.4% 15.7%
x264 [info]: mb P I16..4: 0.5% 14.3% 1.4% P16..4: 28.9% 32.9% 16.6% 3.1% 0.5% skip: 1.8%
x264 [info]: mb B I16..4: 0.1% 1.8% 0.2% B16..8: 28.5% 20.6% 4.0% direct:13.2% skip:31.7% L0:31.1% L1:35.9% BI:33.0%
x264 [info]: 8x8 transform intra:87.6% inter:55.5%
x264 [info]: direct mvs spatial:98.9% temporal:1.1%
x264 [info]: coded y,uvDC,uvAC intra: 94.2% 82.1% 52.4% inter: 40.7% 29.4% 9.5%
x264 [info]: i16 v,h,dc,p: 30% 10% 4% 56%
x264 [info]: i8 v,h,dc,ddl,ddr,vr,hd,vl,hu: 22% 11% 9% 6% 8% 11% 8% 12% 13%
x264 [info]: i4 v,h,dc,ddl,ddr,vr,hd,vl,hu: 21% 10% 4% 7% 12% 14% 11% 11% 10%
x264 [info]: i8c dc,h,v,p: 31% 23% 30% 16%
x264 [info]: Weighted P-Frames: Y:24.8% UV:5.7%
x264 [info]: ref P L0: 40.4% 15.3% 16.0% 6.3% 4.8% 3.5% 3.1% 1.7% 1.6% 1.3% 1.3% 1.1% 1.1% 0.9% 1.0% 0.7%
x264 [info]: ref B L0: 84.1% 9.0% 2.1% 1.2% 0.7% 0.7% 0.5% 0.3% 0.3% 0.3% 0.2% 0.2% 0.2% 0.1% 0.1%
x264 [info]: ref B L1: 96.9% 3.1%
x264 [info]: kb/s:2176.03

x264 [total]: encoded 131663 frames, 14.14 fps, 2176.03 kb/s

General
Unique ID : 220111277701890861560446870121921550009 (0xA597E3DC6FAFAA1F814CE7F44ABE96B9)
Complete name : Опасно для жизни.1985.AVC.mkv
Format : Matroska
Format version : Version 2
File size : 1.45 GiB
Duration : 1h 27mn
Overall bit rate : 2 370 Kbps
Movie name : «Опасно для жизни»
Encoded date : UTC 2016-03-05 13:45:01
Writing application : mkvmerge v5.8.0 ('No Sleep / Pillow') built on Sep 2 2012 15:37:04
Writing library : libebml v1.2.3 + libmatroska v1.3.0
Comment : DVDRip-AVC
Originally released : March 5th 2016
Encoded by : george$t®

Video
ID : 1
Format : AVC
Format/Info : Advanced Video Codec
Format profile : High@L4.1
Format settings, CABAC : Yes
Format settings, ReFrames : 16 frames
Codec ID : V_MPEG4/ISO/AVC
Duration : 1h 27mn
Bit rate : 2 176 Kbps
Width : 712 pixels
Height : 432 pixels
Display aspect ratio : 2.542
Frame rate mode : Constant
Frame rate : 25.000 fps
Color space : YUV
Chroma subsampling : 4:2:0
Bit depth : 8 bits
Scan type : Progressive
Bits/(Pixel*Frame) : 0.283
Stream size : 1.31 GiB (90%)
Title : Опасно для жизни.1985
Writing library : x264 core 148 r2638kMod 7599210
Encoding settings : cabac=1 / ref=16 / deblock=1:-2:0 / analyse=0x3:0x133 / me=umh / subme=11 / psy=1 / fade_compensate=0.00 / psy_rd=1.10:0.20 / mixed_ref=1 / me_range=48 / chroma_me=1 / trellis=2 / 8x8dct=1 / cqm=0 / deadzone=21,11 / fast_pskip=0 / chroma_qp_offset=-3 / threads=12 / lookahead_threads=2 / sliced_threads=0 / nr=0 / decimate=0 / interlaced=0 / bluray_compat=0 / constrained_intra=0 / fgo=0 / bframes=8 / b_pyramid=2 / b_adapt=2 / b_bias=0 / direct=3 / weightb=1 / open_gop=0 / weightp=2 / keyint=250 / keyint_min=25 / scenecut=40 / intra_refresh=0 / rc_lookahead=40 / rc=2pass / mbtree=0 / bitrate=2176 / ratetol=1.0 / qcomp=0.70 / qpmin=0 / qpmax=69 / qpstep=4 / cplxblur=20.0 / qblur=0.5 / vbv_maxrate=50000 / vbv_bufsize=62500 / nal_hrd=none / filler=0 / ip_ratio=1.30 / pb_ratio=1.30 / aq=3:0.50
Language : Russian
Default : Yes
Forced : No
Color primaries : BT.601 PAL
Transfer characteristics : BT.470 System B, BT.470 System G
Matrix coefficients : BT.601
Color range : Limited

Audio
ID : 2
Format : AC-3
Format/Info : Audio Coding 3
Mode extension : CM (complete main)
Format settings, Endianness : Big
Codec ID : A_AC3
Duration : 1h 27mn
Bit rate mode : Constant
Bit rate : 192 Kbps
Channel(s) : 2 channels
Channel positions : Front: L R
Sampling rate : 48.0 KHz
Bit depth : 16 bits
Compression mode : Lossy
Stream size : 121 MiB (8%)
Title : Оригинал: AC-3; 16 bit 48 Khz; 2ch 192 Kbps; CBR.
Language : Russian
Default : Yes
Forced : No

Menu
00:00:00.000 : ru:Утро как утро
00:11:54.920 : ru:Любовник жены
00:15:55.640 : ru:Под напряжением
00:20:38.600 : ru:В управлении
00:29:04.560 : ru:Спасенная жизнь
00:40:05.560 : ru:Подкуп. Шаровая молния
00:51:04.680 : ru:"Нашелся!.."
01:03:20.880 : ru:Объяснение с женой
01:12:23.120 : ru:Тамара
01:23:18.520 : ru:Новая жизнь. "Родничок"

Автор рипа: george$t

Боцман
Аватара пользователя
Korsar
Заслуженный Корсар-Вип+
 
 

Награды: 32
За помощь проекту (2) Лучший по количеству кубков (2) За отличные раздачи и качество (13) За подробное оформление раздач (1) За отличные комментарии (1) Верный Сид (11) За участие в конкурсах/играх (2)
  • Торрент
Для скачивания торрента необходимо зарегистрироваться или войти на трекер.

Вернуться в Кино времён СССР



Uptime по данным Ping-Admin.Ru - сервиса мониторинга доступности сайтов
Рейтинг@Mail.ru Голосуйте за наш сайт в каталоге Rubo.Ru
cron