logo
Международный русскоязычный
торрент-трекер
Menu
Поделиться с друзьями: 
Голосуй за Корсар и получи 500 дублонов
Рейтинг торрент трекеров - UpTracker.ru

Она не пьёт, не курит, не клеит парней, но она... болтает / Elle boit pas, elle fume pas, elle drague pas, mais... elle cause (1970, комедия, криминал, BDRip-AVC)

Сообщение msltel » 30 июн 2020, 09:08

Название: Она не пьёт, не курит, не клеит парней, но она... болтает!
Оригинальное название: Elle boit pas, elle fume pas, elle drague pas, mais... elle cause!
Год выпуска: 1970
Страна: Франция
Жанр: комедия, криминал
Продолжительность: 01:18:56
Перевод: любительский одноголосый
Режиссер: Мишель Одиар
В ролях: Анни Жирардо, Бернар Блие, Мирей Дарк, Жан Ле Пулен, Сим (I), Мишлин Люссьони, Анисе Альвина, Жан Карме, Робер Дальбан, Эвелин Дресс

О фильме: У домработницы Жермен есть три клиента: заместитель кассира в кредитном банке, телеведущая и воспитатель детей. Жермен узнаёт их секреты (довольно непристойные) и, раскрывая эти секреты, добивается того, что кассир начинает шантажировать телеведущую, которая начинает шантажировать воспитателя, который, в свою очередь, начинает шантажировать кассира. И так по кругу...



Качество: BDRip-AVC
Формат: MKV
Видео: MPEG-4 AVC, 2544 Кбит/с, 956х576, 24 кадр/с
Аудио 1: русский, AC3, 192 kbps, 1 ch, 48 kHz [закадровый одноголосый, SATKUR]
Аудио 2: русский, AC3, 192 kbps, 1 ch, 48 kHz [закадровый одноголосый, Urasiko]
Аудио 3: французский, AC3, 192 kbps, 2 ch, 48 kHz [оригинал]
Субтитры 1: русские (Lisok)
Субтитры 2: французские
Субтитры 3: английские
Главы/чаптеры

Общее
Уникальный идентификатор : 181249645022411435189135130451720704124 (0x885B6970B1A11D4B848BB74496DA907C)
Полное имя : D:\Video\Она не пьёт, не курит....1970.BDRip-AVC msltel.mkv
Формат : Matroska
Версия формата : Version 4
Размер файла : 1,72 Гбайт
Продолжительность : 1 ч. 18 м.
Общий поток : 3 123 Кбит/сек
Название фильма : Rip msltel
Дата кодирования : UTC 2020-06-30 02:09:05
Программа кодирования : mkvmerge v8.2.0 ('World of Adventure') 64bit
Библиотека кодирования : libebml v1.3.1 + libmatroska v1.4.2

Видео
Идентификатор : 1
Формат : AVC
Формат/Информация : Advanced Video Codec
Профиль формата : High@L4.1
Настройки формата : CABAC / 14 Ref Frames
Параметр CABAC формата : Да
Параметр RefFrames формата : 14 кадров
Идентификатор кодека : V_MPEG4/ISO/AVC
Продолжительность : 1 ч. 18 м.
Битрейт : 2 544 Кбит/сек
Ширина : 956 пикселей
Высота : 576 пикселей
Соотношение сторон : 5:3
Режим частоты кадров : Постоянный
Частота кадров : 24,000 кадра/сек
Цветовое пространство : YUV
Субдискретизация насыщенности : 4:2:0
Битовая глубина : 8 бит
Тип развёртки : Прогрессивная
Бит/(Пиксели*Кадры) : 0.192
Размер потока : 1,40 Гбайт (81%)
Библиотека кодирования : x264 core 159 r2991 1771b55
Настройки программы : cabac=1 / ref=14 / deblock=1:-2:-2 / analyse=0x3:0x113 / me=umh / subme=11 / psy=1 / psy_rd=1.00:0.15 / mixed_ref=1 / me_range=32 / chroma_me=1 / trellis=2 / 8x8dct=1 / cqm=0 / deadzone=21,11 / fast_pskip=0 / chroma_qp_offset=-3 / threads=6 / lookahead_threads=1 / sliced_threads=0 / nr=0 / decimate=1 / interlaced=0 / bluray_compat=0 / constrained_intra=0 / bframes=8 / b_pyramid=2 / b_adapt=2 / b_bias=0 / direct=1 / weightb=1 / open_gop=0 / weightp=2 / keyint=230 / keyint_min=23 / scenecut=40 / intra_refresh=0 / rc_lookahead=40 / rc=crf / mbtree=1 / crf=19.5 / qcomp=0.60 / qpmin=0 / qpmax=69 / qpstep=4 / vbv_maxrate=50000 / vbv_bufsize=62500 / crf_max=0.0 / nal_hrd=none / filler=0 / ip_ratio=1.40 / aq=1:1.00
Язык : French
Default : Да
Forced : Нет

Аудио #1
Идентификатор : 2
Формат : AC-3
Формат/Информация : Audio Coding 3
Коммерческое название : Dolby Digital
Идентификатор кодека : A_AC3
Продолжительность : 1 ч. 18 м.
Вид битрейта : Постоянный
Битрейт : 192 Кбит/сек
Каналы : 1 канал
Channel layout : C
Частота : 48,0 КГц
Частота кадров : 31,250 кадров/сек (1536 SPF)
Метод сжатия : С потерями
Размер потока : 108 Мбайт (6%)
Заголовок : SATKUR
Язык : Russian
Service kind : Complete Main
Default : Да
Forced : Нет

Аудио #2
Идентификатор : 3
Формат : AC-3
Формат/Информация : Audio Coding 3
Коммерческое название : Dolby Digital
Идентификатор кодека : A_AC3
Продолжительность : 1 ч. 18 м.
Вид битрейта : Постоянный
Битрейт : 192 Кбит/сек
Каналы : 1 канал
Channel layout : C
Частота : 48,0 КГц
Частота кадров : 31,250 кадров/сек (1536 SPF)
Метод сжатия : С потерями
Размер потока : 108 Мбайт (6%)
Заголовок : Urasiko
Язык : Russian
Service kind : Complete Main
Default : Нет
Forced : Нет

Аудио #3
Идентификатор : 4
Формат : AC-3
Формат/Информация : Audio Coding 3
Коммерческое название : Dolby Digital
Идентификатор кодека : A_AC3
Продолжительность : 1 ч. 18 м.
Вид битрейта : Постоянный
Битрейт : 192 Кбит/сек
Каналы : 2 канала
Channel layout : L R
Частота : 48,0 КГц
Частота кадров : 31,250 кадров/сек (1536 SPF)
Метод сжатия : С потерями
Размер потока : 108 Мбайт (6%)
Заголовок : оригинал
Язык : French
Service kind : Complete Main
Default : Нет
Forced : Нет

Текст #1
Идентификатор : 5
Формат : UTF-8
Идентификатор кодека : S_TEXT/UTF8
Идентификатор кодека/Информация : UTF-8 Plain Text
Продолжительность : 1 ч. 18 м.
Битрейт : 132 бит/сек
Count of elements : 1181
Размер потока : 76,0 Кбайт (0%)
Заголовок : русские Lisok
Язык : Russian
Default : Нет
Forced : Нет

Текст #2
Идентификатор : 6
Формат : UTF-8
Идентификатор кодека : S_TEXT/UTF8
Идентификатор кодека/Информация : UTF-8 Plain Text
Продолжительность : 1 ч. 18 м.
Битрейт : 71 бит/сек
Count of elements : 1280
Размер потока : 41,3 Кбайт (0%)
Заголовок : французские
Язык : French
Default : Нет
Forced : Нет

Текст #3
Идентификатор : 7
Формат : UTF-8
Идентификатор кодека : S_TEXT/UTF8
Идентификатор кодека/Информация : UTF-8 Plain Text
Продолжительность : 1 ч. 18 м.
Битрейт : 60 бит/сек
Count of elements : 1181
Размер потока : 34,8 Кбайт (0%)
Заголовок : английские
Язык : English
Default : Нет
Forced : Нет

Меню
00:00:00.000 : en:Chapter 01
00:05:56.291 : en:Chapter 02
00:12:42.458 : en:Chapter 03
00:20:58.208 : en:Chapter 04
00:25:02.583 : en:Chapter 05
00:30:33.000 : en:Chapter 06
00:38:07.458 : en:Chapter 07
00:44:42.375 : en:Chapter 08
00:51:51.458 : en:Chapter 09
00:58:40.583 : en:Chapter 10
01:05:42.583 : en:Chapter 11
01:12:02.875 : en:Chapter 12


"И не совершил там многих чудес по неверию их." (Евангелие от Матфея)
КУБКИ

СТАЖ

МЕДАЛИ
Награды:43

За отличные раздачи и качество (22) За подробное оформление раздач (1) За отличные комментарии (1) Почётный форумчанин (1) Верный Сид (15)

Аватара пользователя
Russia
msltel
Уважаемый Релизёр-Корсар
  • Торрент
Для скачивания торрента необходимо зарегистрироваться или войти на трекер.

Вернуться в Классика зарубежного кино (фильмы до 1980 года)



Uptime по данным Ping-Admin.Ru - сервиса мониторинга доступности сайтов
Рейтинг@Mail.ru