logo
Международный русскоязычный
торрент-трекер
Menu
Doublon
Поделиться с друзьями: 
Голосуй за Корсар и получи 500 дублонов
Рейтинг торрент трекеров - UpTracker.ru

Охота / The Hunt (2020, ужасы, боевик, триллер, WEB-DLRip-AVC) | HDrezka Studio

Сообщение sany771 » 25 мар 2020, 20:52

Название: Охота
Оригинальное название: The Hunt
Год выхода: 2020
Жанр: Ужасы, триллер, боевик
Режиссер: Крэйг Зобел
В ролях: Бетти Гилпин, Хилари Суэнк, Айк Баринхолц, Уэйн Дювалл, Итан Сапли, Эмма Робертс, Кристофер Берри, Стерджил Симпсон, Кейт Ноулин, Эми Мэдиган, Рид Бирни, Гленн Хоуертон, Стив Култер, Дин Уэст, Винс Писани, Тери Уайбл, Стив Мокейт, Сильвия Грэйс Крим, Джейсон Киркпатрик, Мэйкон Блэр, Дж.С. МакКензи, Татасэй Янг, Ханна Калуэлл, Джим Клок, Усман Элли, Уолкер Бэбингтон, Ариэль Элиас, Александр Бабара и т.д.

О фильме: Группа обеспеченных людей решает ради забавы похитить двенадцать обычных людей и заставить их выживать в недружелюбной среде, где на них объявлена жестокая охота. Но они не подозревают, что у них на пути стоит отважная Кристал, которая знает об охоте гораздо больше, чем кажется на первый взгляд.



Страна: США
Студия: Blumhouse Productions, White Rabbit
Продолжительность: 01:30:02
Перевод: Профессиональный (многоголосый закадровый) - HDrezka Studio

Формат: MKV
Качество: WEB-DLRip-AVC
Видео: MPEG-4 AVC, 768x320, - 1080 Кбит/с
Аудио: AAC-HE, 2 ch, - 76 Кбит/с
Субтитры: Русские (Forced, Full), английские

*** В переводе присутствует ненормативная лексика!

Общее
Уникальный идентификатор : 117125514569227025374117325216580722735 (0x581D8DB72931C73886294A0EE635602F)
Полное имя : D:MOVIESThe.Hunt.2020.WEB-DLRip-AVC.ExKinoRay.mkv
Формат : Matroska
Версия формата : Version 4 / Version 2
Размер файла : 745 Мбайт
Продолжительность : 1 ч. 30 м.
Общий поток : 1156 Кбит/сек
Дата кодирования : UTC 2020-03-25 17:17:11
Программа кодирования : mkvmerge v35.0.0 ('All The Love In The World') 64-bit
Библиотека кодирования : libebml v1.3.9 + libmatroska v1.5.2

Видео
Идентификатор : 1
Формат : AVC
Формат/Информация : Advanced Video Codec
Профиль формата : High@L4.1
Параметр CABAC формата : Да
Параметр RefFrames формата : 12 кадров
Идентификатор кодека : V_MPEG4/ISO/AVC
Продолжительность : 1 ч. 30 м.
Битрейт : 1080 Кбит/сек
Ширина : 768 пикселей
Высота : 320 пикселей
Соотношение сторон : 2,40:1
Режим частоты кадров : Постоянный
Частота кадров : 23,976 (24000/1001) кадра/сек
Цветовое пространство : YUV
Субдискретизация насыщенности : 4:2:0
Битовая глубина : 8 бит
Тип развёртки : Прогрессивная
Бит/(Пиксели*Кадры) : 0.183
Размер потока : 694 Мбайт (93%)
Библиотека кодирования : x264 core 159 r2991 1771b55
Настройки программы : cabac=1 / ref=12 / deblock=1:-3:-2 / analyse=0x3:0x133 / me=umh / subme=10 / psy=1 / psy_rd=1.00:0.12 / mixed_ref=1 / me_range=32 / chroma_me=1 / trellis=2 / 8x8dct=1 / cqm=0 / deadzone=21,11 / fast_pskip=0 / chroma_qp_offset=-3 / threads=6 / lookahead_threads=1 / sliced_threads=0 / nr=0 / decimate=0 / interlaced=0 / bluray_compat=0 / constrained_intra=0 / bframes=12 / b_pyramid=2 / b_adapt=2 / b_bias=0 / direct=3 / weightb=1 / open_gop=0 / weightp=2 / keyint=240 / keyint_min=23 / scenecut=40 / intra_refresh=0 / rc_lookahead=40 / rc=2pass / mbtree=1 / bitrate=1080 / ratetol=1.0 / qcomp=0.70 / qpmin=0 / qpmax=69 / qpstep=4 / cplxblur=20.0 / qblur=0.5 / ip_ratio=1.40 / aq=3:1.00
Default : Да
Forced : Нет

Аудио
Идентификатор : 2
Формат : AAC
Формат/Информация : Advanced Audio Codec
Профиль формата : HE-AAC / LC
Идентификатор кодека : A_AAC
Продолжительность : 1 ч. 30 м.
Битрейт : 76,0 Кбит/сек
Каналы : 2 канала
Расположение каналов : Front: L R
Частота : 48,0 КГц / 24,0 КГц
Частота кадров : 23,438 кадра/сек (1024 SPF)
Метод сжатия : С потерями
Задержка видео : 31 мс.
Размер потока : 48,9 Мбайт (7%)
Язык : Russian
Default : Да
Forced : Нет

Текст #1
Идентификатор : 3
Формат : UTF-8
Идентификатор кодека : S_TEXT/UTF8
Идентификатор кодека/Информация : UTF-8 Plain Text
Продолжительность : 1 м. 0 с.
Битрейт : 193 бит/сек
ElementCount : 18
Размер потока : 1,43 Кбайт (0%)
Заголовок : Forced
Язык : Russian
Default : Да
Forced : Нет

Текст #2
Идентификатор : 4
Формат : UTF-8
Идентификатор кодека : S_TEXT/UTF8
Идентификатор кодека/Информация : UTF-8 Plain Text
Продолжительность : 1 ч. 24 м.
Битрейт : 90 бит/сек
ElementCount : 1239
Размер потока : 55,4 Кбайт (0%)
Заголовок : Full
Язык : Russian
Default : Нет
Forced : Нет

Текст #3
Идентификатор : 5
Формат : UTF-8
Идентификатор кодека : S_TEXT/UTF8
Идентификатор кодека/Информация : UTF-8 Plain Text
Продолжительность : 1 ч. 22 м.
Битрейт : 57 бит/сек
ElementCount : 1278
Размер потока : 34,9 Кбайт (0%)
Язык : English
Default : Нет
Forced : Нет


КУБКИ

СТАЖ

МЕДАЛИ
Награды:11

За отличные раздачи и качество (3) За подробное оформление раздач (1) Почётный форумчанин (1) За участие в конкурсах/играх (1) 2 место в конкурсах/играх (1)

Аватара пользователя
Russia
sany771
Опытный Релизёр-Корсар
  • Торрент
Для скачивания торрента необходимо зарегистрироваться или войти на трекер.

Вернуться в Зарубежное кино (2011-2020)



Uptime по данным Ping-Admin.Ru - сервиса мониторинга доступности сайтов
Рейтинг@Mail.ru