logo
Международный русскоязычный
торрент-трекер
Menu
Поделиться с друзьями: 
Голосуй за Корсар и получи 500 дублонов
Рейтинг торрент трекеров - UpTracker.ru

Одноклассники смерти / Серии: 01-04 из 04 (2020, детектив, триллер, WEB-DL 1080p)

Сообщение kisa1980 » 15 мар 2020, 21:50

Название: Одноклассники смерти
Год выхода: 2020
Жанр: Детектив, триллер
Режиссер: Филипп Коршунов
В ролях: Станислав Бондаренко, Екатерина Копанова, Елена Полянская, Анастасия Савосина, Владимир Довжик, Сергей Борисов, Евгений Березовский, Никита Абдулов, Людмила Караяниди, Ольга Зейгер, Ксения Щербакова, Марк Бондаренко, Максим Демченко, Александр Левин, Павел Абдалов, Максим Коновалов, Елена Любимова, Евгения Ярушникова, Сергей Фишер, Галина Шмакова, Игорь Кулачко, Александр Тютин, Иван Коряковский, Марина Куделинская

О фильме: Блестящий журналист Дмитрий Полуянов прекрасно знал, что его невеста Надя Митрофанова - девушка непредсказуемая. Но он и предположить не мог, какие тайны прошлого откроются перед ним накануне свадьбы. Одно за другим происходят убийства и совершенно непонятно, кто окажется следующей жертвой. По романам Анны и Сергея Литвиновых.



Страна: Россия
Студия: NRG Film
Продолжительность: 4x ~ 00:48:00
Перевод: Не требуется

Качество: WEB-DL 1080p
Формат: Matroska
Видео: 1920х1080 (16:9), 25 fps, AVC MPEG-4 ~ 5000 kbps avg
Звук: Русский: 48 kHz, AC3, 2 ch, 256 kbps avg
Субтитры: Нет

Релиз от:


General
Unique ID : 219135165200731280992974843099451352271 (0xA4DBE5CC9379D093A44E2647AC09E4CF)
Complete name : Odnoklassniki.smerti.E01.2020.WEB_DL._1080p_.ExKinoRay_.mkv
Format : Matroska
Format version : Version 4 / Version 2
File size : 38.0 MiB
Duration : 48 min 0 s
Overall bit rate : 5 308 kb/s
Encoded date : UTC 2020-03-15 18:10:26
Writing application : mkvmerge v6.9.1 ('Blue Panther') 64bit built on Apr 18 2014 18:23:38
Writing library : libebml v1.3.0 + libmatroska v1.4.1

Video
ID : 1
Format : AVC
Format/Info : Advanced Video Codec
Format profile : High@L4
Format settings, CABAC : Yes
Format settings, RefFrames : 4 frames
Codec ID : V_MPEG4/ISO/AVC
Duration : 48 min 0 s
Bit rate : 4 946 kb/s
Width : 1 920 pixels
Height : 1 080 pixels
Display aspect ratio : 16:9
Frame rate mode : Constant
Frame rate : 25.000 FPS
Color space : YUV
Chroma subsampling : 4:2:0
Bit depth : 8 bits
Scan type : Progressive
Bits/(Pixel*Frame) : 0.095
Stream size : 35.4 MiB (93%)
Default : Yes
Forced : No

Audio
ID : 2
Format : AC-3
Format/Info : Audio Coding 3
Format settings, Endianness : Big
Codec ID : A_AC3
Duration : 1 min 0 s
Bit rate mode : Constant
Bit rate : 256 kb/s
Channel(s) : 2 channels
Channel positions : Front: L R
Sampling rate : 48.0 kHz
Frame rate : 31.250 FPS (1536 SPF)
Bit depth : 16 bits
Compression mode : Lossy
Delay relative to video : 24 ms
Stream size : 1.83 MiB (5%)
Language : Russian
Service kind : Complete Main
Default : Yes
Forced : No
КУБКИ

СТАЖ

МЕДАЛИ
Награды:115

За активную помощь проекту (12) Лучший по количеству кубков (4) За отличные раздачи и качество (43) За подробное оформление раздач (10) За отличные комментарии (10) Почётный форумчанин (3) Верный Сид (30) За участие в конкурсах/играх (2)

Аватара пользователя
Тортуга
kisa1980
Главный помощник Администратора-Корсар
  • Торрент
Для скачивания торрента необходимо зарегистрироваться или войти на трекер.

Сообщение kwazar312 » 15 мар 2020, 22:28

Отлично провели с собакой вечер за просмотром захватывающего фильма. Очень интересно, много любопытных сюжетных поворотов и ложных версий - интрига постоянно на высоком уровне. Однако именно Ирину я подозревал с определенного момента. Она с опозданием сообщила сначала про шантаж Адольфовны, потом про скандал со Сладковой на встрече выпускников - именно тогда, когда было удобно подкинуть подозреваемых. Неспроста показали и ее татуировку - значит, в будущем она должна была сыграть (и действительно сыграла - помогла Наде опознать Ирину на снимке со скрытым лицом в бульварном издании). Эпизод с отравлением Ирины сразу показался липовым (ведь к столику никто из посторонних не подходил!). Шикарные ключики для самостоятельного расследования зрителя/читателя.
Уважаемый kisa1980,спасибо за раздачу новинки.Хорошее продолжение трех предыдущих
фильмов по романам Литвиновых.Скачивать не буду,уже есть с другого источника.
:hi: :preved: :good:
P.S. Что случилось с релизером Aleksan55,обычно все новинки очень оперативно выставлял он,а сейчас его релизы пропали.
Сегодня посмотрел хороший фильм о деревне "Сельский детектив.Яблоня раздора".Вот бы его выставить на сайте(формат 1080р).Его скачал в SAT,но качество неважное,а в фильме прекрасные деревенские пейзажи.
Последний раз редактировалось kwazar312 16 мар 2020, 09:03, всего редактировалось 1 раз.
КУБКИ

СТАЖ

МЕДАЛИ
Награды:144

Пожизненный VIP+ (2) За активную помощь проекту (14) Лучший по количеству кубков (45) За отличные раздачи и качество (3) За отличные комментарии (24) Почётный форумчанин (1) Верный Сид (49) За участие в конкурсах/играх (6)

Аватара пользователя
kwazar312
Заслуженный Корсар-Вип+

Сообщение kisa1980 » 15 мар 2020, 22:33

kwazar312 писал(а):"Сельский детектив. Яблоня раздора". Вот бы его выставить на сайте (формат 1080р)

selskiy-detektiv-yablonya-razdora-serii-01-02-iz-02-2019-detektiv-kriminal-web-dl-1080p-t32543.html
КУБКИ

СТАЖ

МЕДАЛИ
Награды:115

За активную помощь проекту (12) Лучший по количеству кубков (4) За отличные раздачи и качество (43) За подробное оформление раздач (10) За отличные комментарии (10) Почётный форумчанин (3) Верный Сид (30) За участие в конкурсах/играх (2)

Аватара пользователя
Тортуга
kisa1980
Главный помощник Администратора-Корсар


Вернуться в Отечественные сериалы (HD Video)



Uptime по данным Ping-Admin.Ru - сервиса мониторинга доступности сайтов
Рейтинг@Mail.ru