logo
Международный русскоязычный
торрент-трекер
Menu
Поделиться с друзьями: 
Голосуй за Корсар и получи 500 дублонов
Рейтинг торрент трекеров - UpTracker.ru

Одни / Seuls (2017, Фэнтези, фантастика, BDRemux 1080p)

Сообщение al1ksandr » 31 июл 2020, 17:16

Название: Одни (Единственные)
Оригинальное название: Seuls
Год выпуска: 2017
Жанр: Фэнтези, фантастика
Режиссер: Давид Моро
В ролях: София Лезафр, Стефан Бак, Жан-Стен Дю Пак, Пол Скарфоглио, Ким Локхарт, Тома Доре, Ренан Мадельпье, Ренан Прево, Инес Спиридонов, Жанн Гитте, Камиль Искер

О фильме: Пятеро детей просыпаются в городе, где никого нет. Разом пропали все люди, и что же именно случилось, - детям не ясно. Ко всему прочему, они ничего не помнят из того, что было до этого странного события. Постепенно, пытаясь выяснить картину происходящего, группа подростков осознает, что в городе кроме них есть и скрытый враг, пытающийся убить попавших в западню детей. Ситуация осложняется и тем, что выехать из города невозможно из-за образования по всему окружному периметру загадочного тумана.



Выпущено: Франция, Бельгия, Canal+ [fr], CNC, Ciné, Echo Films, Faust Films Inc., Le Tax Shelter du Gouvernement Fédéral de Belgique, SCOPE Invest, Scope Pictures
Продолжительность: 01:37:34
Перевод: Авторский

Качество: BDRemux 1080p
Видео: MPEG-4 AVC, 27.8 Мбит/с, 1920x800, 24 кадр/с
Аудио 1: Русский (DTS-HD MA, 6 ch, 3559 Кбит/с) | Авторский одноголосый (Антон Карповский)
Аудио 2: Французский (DTS-HD MA, 6 ch, 3525 Кбит/с)
Субтитры: Французские

Заказ перевода с французского у Антона Карповского (август 2017) - ylnian
За сборку дороги спасибо rammzez

Релиз без рекламы!




Общее
Уникальный идентификатор : 236623526627189620539496335555975067432 (0xB204089696605D6AA350460927563728)
Полное имя : D:\Seuls.2017.BDRemux-ylnian.mkv
Формат : Matroska
Версия формата : Version 4 / Version 2
Размер файла : 23,8 Гбайт
Продолжительность : 1 ч. 37 м.
Режим общего битрейта : Переменный
Общий поток : 34,9 Мбит/сек
Название фильма : Seuls.2017.BDRemux-ylnian
Дата кодирования : UTC 2017-11-25 18:11:42
Программа кодирования : mkvmerge v18.0.0 ('Apricity') 64-bit
Библиотека кодирования : libebml v1.3.5 + libmatroska v1.4.8

Видео
Идентификатор : 1
Формат : AVC
Формат/Информация : Advanced Video Codec
Профиль формата : High@L4.1
Настройки формата : CABAC / 4 Ref Frames
Параметр CABAC формата : Да
Параметр RefFrames формата : 4 кадра
Идентификатор кодека : V_MPEG4/ISO/AVC
Продолжительность : 1 ч. 37 м.
Вид битрейта : Переменный
Битрейт : 27,8 Мбит/сек
Максимальный битрейт : 36,0 Мбит/сек
Ширина : 1920 пикселей
Высота : 1080 пикселей
Соотношение сторон : 16:9
Режим частоты кадров : Постоянный
Частота кадров : 24,000 кадра/сек
Цветовое пространство : YUV
Субдискретизация насыщенности : 4:2:0
Битовая глубина : 8 бит
Тип развёртки : Прогрессивная
Бит/(Пиксели*Кадры) : 0.558
Размер потока : 18,9 Гбайт (80%)
Заголовок : Seuls.2017.FRENCH.1080p.BluRay.REMUX.AVC.DTS.HDMA-XANTAR
Язык : French
Default : Да
Forced : Нет

Аудио #1
Идентификатор : 2
Формат : DTS
Формат/Информация : Digital Theater Systems
Профиль формата : MA / Core
Идентификатор кодека : A_DTS
Продолжительность : 1 ч. 37 м.
Вид битрейта : Переменный / Постоянный
Битрейт : 3559 Кбит/сек / 1509 Кбит/сек
Каналы : 6 каналов
Расположение каналов : Front: L C R, Side: L R, LFE
Частота : 48,0 КГц
Частота кадров : 93,750 кадра/сек (512 SPF)
Битовая глубина : 24 бит
Метод сжатия : Без потерь / Lossy
Размер потока : 2,43 Гбайт (10%)
Заголовок : DTS-HD 5.1
Язык : Russian
Default : Да
Forced : Да

Аудио #2
Идентификатор : 3
Формат : DTS
Формат/Информация : Digital Theater Systems
Профиль формата : MA / Core
Идентификатор кодека : A_DTS
Продолжительность : 1 ч. 37 м.
Вид битрейта : Переменный / Постоянный
Битрейт : 3525 Кбит/сек / 1509 Кбит/сек
Каналы : 6 каналов
Расположение каналов : Front: L C R, Side: L R, LFE
Частота : 48,0 КГц
Частота кадров : 93,750 кадра/сек (512 SPF)
Битовая глубина : 24 бит
Метод сжатия : Без потерь / Lossy
Размер потока : 2,40 Гбайт (10%)
Заголовок : DTS-HD 5.1
Язык : French
Default : Нет
Forced : Нет

Текст
Идентификатор : 4
Формат : UTF-8
Идентификатор кодека : S_TEXT/UTF8
Идентификатор кодека/Информация : UTF-8 Plain Text
Продолжительность : 1 ч. 32 м.
Битрейт : 40 бит/сек
ElementCount : 1098
Размер потока : 27,3 Кбайт (0%)
Язык : French
Default : Нет
Forced : Нет

Меню
00:00:00.000 : en:Chapter 1
00:08:17.583 : en:Chapter 2
00:16:23.750 : en:Chapter 3
00:24:09.000 : en:Chapter 4
00:32:13.958 : en:Chapter 5
00:40:42.333 : en:Chapter 6
00:49:20.208 : en:Chapter 7
00:57:03.666 : en:Chapter 8
01:05:08.083 : en:Chapter 9
01:11:29.125 : en:Chapter 10
01:21:09.333 : en:Chapter 11
01:27:16.083 : en:Chapter 12


Релиз-группа:
КУБКИ

СТАЖ

МЕДАЛИ
Награды:56

За активную помощь проекту (4) Лучший по количеству кубков (16) За отличные раздачи и качество (13) За подробное оформление раздач (1) За отличные комментарии (15) Почётный форумчанин (3) Верный Сид (1) За участие в конкурсах/играх (2)

Аватара пользователя
СССР
al1ksandr
Главный Модератор-Корсар
  • Торрент
Для скачивания торрента необходимо зарегистрироваться или войти на трекер.

Вернуться в Зарубежное кино (2011-2020 / HD Video)



Рейтинг@Mail.ru