logo
Международный русскоязычный
торрент-трекер
Menu
Doublon
Поделиться с друзьями: 
Голосуй за Корсар и получи 500 дублонов
Рейтинг торрент трекеров - UpTracker.ru

Однажды в Китае / Wong Fei Hung (1991, Боевик, приключение, BDRip 1080p)

Непрочитанное сообщение Gogen » 18 сен 2019, 18:35

Название: Однажды в Китае
Оригинальное название: Wong Fei Hung / Once Upon A Time In China
Год выхода: 1991
Страна: Гонконг
Жанр: Боевик, приключение
Продолжительность: 02:14:30
Перевод: Профессиональный (двухголосый закадровый), авторский одноголосый
Субтитры: Русские
Режиссер: Харк Цуй
В ролях: Джет Ли, Юэн Био, Розамунд Кван, Кен Ченг, Джеки Чеунг

О фильме: Конец прошлого столетия. Китайцы пытаются бороться всеми доступными им средствами с расширением американского влияния, решительно восстают против наглого грабежа и похищения людей.



Кодек: x264
Качество: BDRip 1080p
Видео: MPEG4 Video (H264), 1920x800, 23.976fps, 11.0 Mbps
Звук:
Аудио #1: Русский, Dolby AC3, 48000 Hz, 2ch, 192 kbps - Двухголосый
Аудио #2: Русский, Dolby AC3, 48000 Hz, 2ch, 192 kbps - Одноголосый, Сергей Визгунов
Аудио #3: Китайский, Dolby AC3, 48000 Hz, 2ch, 192 kbps
Формат субтитров: Softsub (SRT)

General
Unique ID : 232599346275770745707190673287096287620 (0xAEFD012DB5F1D783B2248D004C53C184)
Complete name : D:Torrent21991.Wong.Fei.Hung.likko.mkv
Format : Matroska
Format version : Version 4
File size : 10.9 GiB
Duration : 2 h 14 min
Overall bit rate : 11.6 Mb/s
Movie name : 1991 Однажды в Китае/likko
Encoded date : UTC 2019-09-16 08:19:30
Writing application : mkvmerge v8.3.0 ('Over the Horizon') 64bit
Writing library : libebml v1.3.1 + libmatroska v1.4.2

Video
ID : 1
Format : AVC
Format/Info : Advanced Video Codec
Format profile : High@L4.1
Format settings : CABAC / 5 Ref Frames
Format settings, CABAC : Yes
Format settings, Reference fra : 5 frames
Codec ID : V_MPEG4/ISO/AVC
Duration : 2 h 14 min
Bit rate : 11.0 Mb/s
Width : 1 920 pixels
Height : 800 pixels
Display aspect ratio : 2.40:1
Frame rate mode : Constant
Frame rate : 23.976 (24000/1001) FPS
Color space : YUV
Chroma subsampling : 4:2:0
Bit depth : 8 bits
Scan type : Progressive
Bits/(Pixel*Frame) : 0.299
Stream size : 10.3 GiB (95%)
Title : 1991 Однажды в Китае
Writing library : x264 core 148 r2638 7599210
Encoding settings : cabac=1 / ref=5 / deblock=1:-1:-1 / analyse=0x3:0x133 / me=umh / subme=11 / psy=1 / psy_rd=1.00:0.15 / mixed_ref=1 / me_range=48 / chroma_me=1 / trellis=2 / 8x8dct=1 / cqm=0 / deadzone=21,11 / fast_pskip=0 / chroma_qp_offset=-3 / threads=18 / lookahead_threads=4 / sliced_threads=0 / nr=0 / decimate=1 / interlaced=0 / bluray_compat=0 / constrained_intra=0 / bframes=10 / b_pyramid=2 / b_adapt=2 / b_bias=0 / direct=3 / weightb=1 / open_gop=0 / weightp=2 / keyint=250 / keyint_min=23 / scenecut=40 / intra_refresh=0 / rc=2pass / mbtree=0 / bitrate=11000 / ratetol=1.0 / qcomp=0.60 / qpmin=0 / qpmax=69 / qpstep=4 / cplxblur=20.0 / qblur=0.5 / ip_ratio=1.40 / pb_ratio=1.30 / aq=2:1.00
Language : Chinese
Default : Yes
Forced : No

Audio #1
ID : 2
Format : AC-3
Format/Info : Audio Coding 3
Commercial name : Dolby Digital
Codec ID : A_AC3
Duration : 2 h 14 min
Bit rate mode : Constant
Bit rate : 192 kb/s
Channel(s) : 2 channels
Channel layout : L R
Sampling rate : 48.0 kHz
Frame rate : 31.250 FPS (1536 SPF)
Bit depth : 16 bits
Compression mode : Lossy
Stream size : 185 MiB (2%)
Title : Двухголосый
Language : Russian
Service kind : Complete Main
Default : Yes
Forced : No

Audio #2
ID : 3
Format : AC-3
Format/Info : Audio Coding 3
Commercial name : Dolby Digital
Codec ID : A_AC3
Duration : 2 h 14 min
Bit rate mode : Constant
Bit rate : 192 kb/s
Channel(s) : 2 channels
Channel layout : L R
Sampling rate : 48.0 kHz
Frame rate : 31.250 FPS (1536 SPF)
Bit depth : 16 bits
Compression mode : Lossy
Stream size : 185 MiB (2%)
Title : Одноголосый, Сергей Визгунов
Language : Russian
Service kind : Complete Main
Default : No
Forced : No

Audio #3
ID : 4
Format : AC-3
Format/Info : Audio Coding 3
Commercial name : Dolby Digital
Codec ID : A_AC3
Duration : 2 h 14 min
Bit rate mode : Constant
Bit rate : 192 kb/s
Channel(s) : 2 channels
Channel layout : L R
Sampling rate : 48.0 kHz
Frame rate : 31.250 FPS (1536 SPF)
Bit depth : 16 bits
Compression mode : Lossy
Stream size : 185 MiB (2%)
Language : Chinese
Service kind : Complete Main
Default : No
Forced : No

Text
ID : 5
Format : UTF-8
Codec ID : S_TEXT/UTF8
Codec ID/Info : UTF-8 Plain Text
Duration : 2 h 10 min
Bit rate : 73 b/s
Count of elements : 1525
Stream size : 69.7 KiB (0%)
Language : Russian
Default : No
Forced : No

Menu
00:00:00.000 : en:Chapter 01
00:08:50.655 : en:Chapter 02
00:21:29.037 : en:Chapter 03
00:33:02.271 : en:Chapter 04
00:45:35.232 : en:Chapter 05
00:54:46.992 : en:Chapter 06
01:00:41.721 : en:Chapter 07
01:07:39.055 : en:Chapter 08
01:19:21.590 : en:Chapter 09
01:31:40.077 : en:Chapter 10
01:41:22.659 : en:Chapter 11
01:51:57.836 : en:Chapter 12
02:01:03.214 : en:Chapter 13
02:11:56.325 : en:Chapter 14



Сравнение издания с HK Blu-ray Kam & Ronson Enterprise
https://caps-a-holic.com/c.php?a=1&x=52 ... 0&i=4&go=1

Взято из этого издания
UK Blu-ray Eureka Entertainment
https://www.blu-ray.com/movies/Once-Upo ... ay/214122/

Автор likko
КУБКИ

СТАЖ

МЕДАЛИ
Награды:61

Лучший по количеству кубков (14) За отличные раздачи и качество (30) За подробное оформление раздач (1) За отличные комментарии (5) Почётный форумчанин (5) Верный Сид (2)

Аватара пользователя
Russia
Gogen
Заслуженный Релизёр-Корсар
  • Торрент
Для скачивания торрента необходимо зарегистрироваться или войти на трекер.

Вернуться в Зарубежное кино (1991-2000 / HD Video)



Uptime по данным Ping-Admin.Ru - сервиса мониторинга доступности сайтов
Рейтинг@Mail.ru