logo
Международный русскоязычный
торрент-трекер
Menu

Doublon
Поделиться с друзьями: 
Голосуй за Корсар и получи 400 дублонов
Рейтинг торрент трекеров - UpTracker.ru

Однажды в Америке / Once Upon a Time in America (1984, драма, криминал, BDRip-HEVC 1080p) - KORSAR | Расширенная версия

Сообщение DSIO » 09 окт 2018, 15:55

Название: Однажды в Америке
Оригинальное название: Once Upon a Time in America
Год выпуска: 1984
Жанр: Драма, криминал
Режиссёр: Серджио Леоне
В ролях: Роберт Де Ниро, Джеймс Вудс, Элизабет МакГоверн, Джо Пеши, Берт Янг, Тьюзди Уэлд, Трит Уильямс, Дэнни Айелло, Ричард Брайт

О фильме: В бурные двадцатые годы, когда Америка веселилась под звуки джаза и каждый бродяга мечтал стать миллионером, в трущобах Нью-Йорка встретились несколько отчаянных парней. Убирая с дороги конкурентов, безжалостно карая предателей и нагло проворачивая хитроумные аферы, они стали королями преступного мира золотой эры «сухого закона». Они поклялись отдать жизнь друг за друга, зная, что самое главное для них — это дружба, долг и справедливость — не утопить в реках крови и бездонном океане денег. Спустя много лет судьба жестоко обошлась с легендарными гангстерами, заставив их исполнить свою клятву. Это случилось однажды в Америке…



Перевод: Авторский одноголосый
Продолжительность: 04:11:00

Видео кодек: x265
Качество: BDRip-HEVC 1080p
Видео: 1920x1040, 6683 Кбит/сек, 23,976 кадр/сек, H.265 L5.1High 10bit
Аудио 1: Русская, AC3 640 Кбит/сек, 6 канала(ов),16bit 48,0КГц, Сербин
Аудио 2: Русская, AC3 640 Кбит/сек, 6 канала(ов),16bit 48,0КГц, Яроцкий
Аудио 3: English, AC3 640 Кбит/сек, 6 канала(ов),16bit 48,0КГц
Субтитры: Русские



Общее
Уникальный идентификатор : 210334158390233019063342792756622501943 (0x9E3CE2A962CA7E7CD05AADE85A8BA837)
Полное имя : F:\korsar\Однажды в Америке - Once Upon a Time in America (1983)(1080p).mkv
Формат : Matroska
Версия формата : Version 4 / Version 2
Размер файла : 15,1 Гбайт
Продолжительность : 4 ч. 11 м.
Общий поток : 8605 Кбит/сек
Название фильма : Однажды в Америке / Once Upon a Time in America (rip by DSIO)
Дата кодирования : UTC 2018-10-09 12:17:02
Программа кодирования : mkvmerge v25.0.0 ('Prog Noir') 64-bit
Библиотека кодирования : libebml v1.3.6 + libmatroska v1.4.9
Обложка : Yes
Attachments : cover.jpg

Видео
Идентификатор : 1
Формат : HEVC
Формат/Информация : High Efficiency Video Coding
Профиль формата : Main 10@L5.1@High
Идентификатор кодека : V_MPEGH/ISO/HEVC
Продолжительность : 4 ч. 11 м.
Битрейт : 6683 Кбит/сек
Ширина : 1920 пикселей
Высота : 1040 пикселей
Соотношение сторон : 1,85:1
Режим частоты кадров : Постоянный
Частота кадров : 24,000 кадра/сек
Цветовое пространство : YUV
Субдискретизация насыщенности : 4:2:0
Битовая глубина : 10 бит
Бит/(Пиксели*Кадры) : 0.139
Размер потока : 11,7 Гбайт (78%)
Библиотека кодирования : x265 2.8+23-656b5b442f0b:[Windows][GCC 7.3.0][64 bit] 10bit
Настройки программы : cpuid=1176575 / frame-threads=4 / numa-pools=16 / wpp / no-pmode / no-pme / no-psnr / no-ssim / log-level=2 / input-csp=1 / input-res=1920x1040 / interlace=0 / total-frames=0 / level-idc=51 / high-tier=1 / uhd-bd=0 / ref=5 / no-allow-non-conformance / no-repeat-headers / annexb / no-aud / no-hrd / info / hash=0 / no-temporal-layers / open-gop / min-keyint=24 / keyint=250 / gop-lookahead=0 / bframes=8 / b-adapt=2 / no-b-pyramid / bframe-bias=0 / rc-lookahead=40 / lookahead-slices=4 / scenecut=40 / radl=0 / no-intra-refresh / ctu=64 / min-cu-size=8 / no-rect / no-amp / max-tu-size=32 / tu-inter-depth=2 / tu-intra-depth=2 / limit-tu=4 / rdoq-level=2 / dynamic-rd=0.00 / no-ssim-rd / signhide / no-tskip / nr-intra=0 / nr-inter=0 / no-constrained-intra / strong-intra-smoothing / max-merge=3 / limit-refs=2 / limit-modes / me=3 / subme=7 / merange=64 / temporal-mvp / weightp / weightb / no-analyze-src-pics / deblock=-3:-3 / no-sao / no-sao-non-deblock / rd=6 / no-early-skip / rskip / no-fast-intra / no-tskip-fast / no-cu-lossless / b-intra / no-splitrd-skip / rdpenalty=0 / psy-rd=2.00 / psy-rdoq=1.00 / no-rd-refine / no-lossless / cbqpoffs=0 / crqpoffs=0 / rc=crf / crf=18.0 / qcomp=0.60 / qpstep=4 / stats-write=0 / stats-read=0 / vbv-maxrate=160000 / vbv-bufsize=160000 / vbv-init=0.9 / crf-max=0.0 / crf-min=0.0 / ipratio=1.10 / pbratio=1.10 / aq-mode=1 / aq-strength=0.70 / cutree / zone-count=0 / no-strict-cbr / qg-size=32 / no-rc-grain / qpmax=69 / qpmin=0 / no-const-vbv / sar=0 / overscan=0 / videoformat=5 / range=0 / colorprim=2 / transfer=2 / colormatrix=1 / chromaloc=0 / display-window=0 / max-cll=0,0 / min-luma=0 / max-luma=1023 / log2-max-poc-lsb=8 / vui-timing-info / vui-hrd-info / slices=1 / no-opt-qp-pps / no-opt-ref-list-length-pps / no-multi-pass-opt-rps / scenecut-bias=0.05 / no-opt-cu-delta-qp / no-aq-motion / no-hdr / no-hdr-opt / no-dhdr10-opt / no-idr-recovery-sei / analysis-reuse-level=5 / scale-factor=0 / refine-intra=0 / refine-inter=0 / refine-mv=0 / no-limit-sao / ctu-info=0 / no-lowpass-dct / refine-mv-type=0 / copy-pic=1 / max-ausize-factor=1.0 / no-dynamic-refine / no-single-sei
Default : Да
Forced : Да
Цветовой диапазон : Limited
Коэффициенты матрицы : BT.709

Аудио #1
Идентификатор : 2
Формат : AC-3
Формат/Информация : Audio Coding 3
Идентификатор кодека : A_AC3
Продолжительность : 4 ч. 11 м.
Вид битрейта : Постоянный
Битрейт : 640 Кбит/сек
Каналы : 6 каналов
Расположение каналов : Front: L C R, Side: L R, LFE
Частота : 48,0 КГц
Частота кадров : 31,250 кадров/сек (1536 SPF)
Битовая глубина : 16 бит
Метод сжатия : С потерями
Размер потока : 1,12 Гбайт (7%)
Заголовок : Одноголосый закадровый (Сербин)
Язык : Russian
ServiceKind/String : Complete Main
Default : Да
Forced : Нет

Аудио #2
Идентификатор : 3
Формат : AC-3
Формат/Информация : Audio Coding 3
Идентификатор кодека : A_AC3
Продолжительность : 4 ч. 11 м.
Вид битрейта : Постоянный
Битрейт : 640 Кбит/сек
Каналы : 6 каналов
Расположение каналов : Front: L C R, Side: L R, LFE
Частота : 48,0 КГц
Частота кадров : 31,250 кадров/сек (1536 SPF)
Битовая глубина : 16 бит
Метод сжатия : С потерями
Размер потока : 1,12 Гбайт (7%)
Заголовок : Одноголосый закадровый (Яроцкий)
Язык : Russian
ServiceKind/String : Complete Main
Default : Нет
Forced : Нет

Аудио #3
Идентификатор : 4
Формат : AC-3
Формат/Информация : Audio Coding 3
Идентификатор кодека : A_AC3
Продолжительность : 4 ч. 11 м.
Вид битрейта : Постоянный
Битрейт : 640 Кбит/сек
Каналы : 6 каналов
Расположение каналов : Front: L C R, Side: L R, LFE
Частота : 48,0 КГц
Частота кадров : 31,250 кадров/сек (1536 SPF)
Битовая глубина : 16 бит
Метод сжатия : С потерями
Размер потока : 1,12 Гбайт (7%)
Язык : English
ServiceKind/String : Complete Main
Default : Нет
Forced : Нет

Текст
Идентификатор : 5
Формат : UTF-8
Идентификатор кодека : S_TEXT/UTF8
Идентификатор кодека/Информация : UTF-8 Plain Text
Продолжительность : 3 ч. 54 м.
Битрейт : 52 бит/сек
ElementCount : 1564
Размер потока : 89,6 Кбайт (0%)
Заголовок : Русский
Язык : Russian
Default : Нет
Forced : Нет

Меню
00:00:00.000 : en:
00:03:28.916 : en:
00:14:48.083 : en:
00:24:36.000 : en:
00:37:39.666 : en:
00:45:50.166 : en:
00:53:35.875 : en:
01:04:46.874 : en:
01:12:05.000 : en:
01:22:31.583 : en:
01:30:33.416 : en:
01:38:18.875 : en:
01:44:53.291 : en:
01:52:24.875 : en:
02:01:01.166 : en:
02:08:37.625 : en:
02:18:36.083 : en:
02:27:45.875 : en:
02:33:55.583 : en:
02:42:24.666 : en:
02:48:07.250 : en:
02:55:59.333 : en:
03:02:59.416 : en:
03:08:52.416 : en:
03:13:56.708 : en:
03:22:56.208 : en:
03:30:10.750 : en:
03:40:32.625 : en:
03:46:35.750 : en:
03:54:51.333 : en:
04:03:14.166 : en:
04:06:44.750 : en:


Автор: DSIO
Аватара пользователя
DSIO
Модератор-Корсар
 
 

Награды: 2
Раздачи группы KORSAR разрешено перезаливать спустя сутки после публикации
  • Торрент
Для скачивания торрента необходимо зарегистрироваться или войти на трекер.

Сообщение Cthulhu » 09 окт 2018, 15:59

Название в формате: Однажды в Америке / Once Upon a Time in America (1983, драма, криминал, BDRip-HEVC 1080p) - KORSAR | Расширенная версия.
С почином :hi:
Аватара пользователя
Cthulhu
Главный Модератор-Корсар
 
 

Награды: 22
За помощь проекту (2) Лучший по количеству кубков (1) За отличные раздачи и качество (11) Почётный форумчанин (2) Верный Сид (4)

Сообщение filbi1976 » 09 окт 2018, 16:42

Сильный фильм! :10 balov:
DSIO, спасибо! :hi:
Аватара пользователя
filbi1976
Администратор-Корсар
 
 

Награды: 63
За помощь проекту (1) За отличные раздачи и качество (47) Верный Сид (12) За участие в конкурсах/играх (1)

Сообщение verybigpapa » 09 окт 2018, 17:01

Мощнейший ФИЛЬМИЩЕ!!! :good: :10 balov: Огромное спасибо, уважаемый DSIO!
Улыбайтесь, господа! Улыбайтесь!
Аватара пользователя
verybigpapa
Заслуженный Корсар-Вип
 
 

Награды: 37
За помощь проекту (14) Лучший по количеству кубков (9) За отличные комментарии (5) Верный Сид (9)

Сообщение XuMuK » 12 окт 2018, 18:53

Дим, звук ты переделал? Я правильно понял?
Аватара пользователя
XuMuK
Главный Модератор-Корсар
 
 

Награды: 18
За помощь проекту (2) Лучший по количеству кубков (1) За отличные раздачи и качество (8) За подробное оформление раздач (1) Почётный форумчанин (1) Верный Сид (3)

Сообщение DSIO » 13 окт 2018, 07:52

XuMuK писал(а):Дим, звук ты переделал? Я правильно понял?


Да, исходные DTS-HD по твоим инструкциям перегнал.
Аватара пользователя
DSIO
Модератор-Корсар
 
 

Награды: 2


Вернуться в Фильмы HEVC (HEVC Video)



Uptime по данным Ping-Admin.Ru - сервиса мониторинга доступности сайтов
Рейтинг@Mail.ru Голосуйте за наш сайт в каталоге Rubo.Ru
cron