logo
Международный русскоязычный
торрент-трекер
Menu
Поделиться с друзьями: 
Голосуй за Корсар и получи 500 дублонов
Рейтинг торрент трекеров - UpTracker.ru

Очарование Манхэттена / Romance in Manhattan (1935, Мелодрама, комедия, WEB-DL 1080p)

Сообщение al1ksandr » 29 июн 2020, 21:34

Название: Очарование Манхэттена
Оригинальное название: Romance in Manhattan
Год выпуска: 1935
Жанр: Мелодрама, комедия
Режиссер: Стивен Робертс
В ролях: Френсис Ледерер, Джинджер Роджерс, Артур Хол, Джимми Батлер, Дж. Фаррелл МакДональд, Хелен Уэр, Эйли Мэлион, Лиллиэн Хармер, Дональд Мик, Сидни Толер, Ирвинг Бэйкон, Энди Клайд, Вэйд Ботелер

О фильме: Невероятно наивный иммигрант из Чехословакии Карел Новак осуществляет свою мечту и приезжает в Америку, чтобы учиться. На его беду таможенная пошлина была увеличена с 50 долларов до 200. Так как он не может оплатить, его сажают на корабль, отплывающий в Голландию, но он выпрыгивает в воду, когда судно отходит от причала. Приняв людей, которые его спасали за представителей власти, Карел бросается бежать, оставив в их руках бумажник с документами и деньгами. Вначале он бродит по городу, восхищаясь небоскребами, автомобилями, но обнаружив пропажу документов и денег, он начинает понимать, что есть и обратная сторона бьющего в глаза достатка. Пытаясь от голода украсть пончики с обеденного стола танцовщиц, Карел знакомится с хористкой Сильвией Деннис, которая, видя его бедственное положение, разрешает ему спать на крыше ее дома…



Выпущено: США, RKO Radio Pictures Inc.
Продолжительность: 01:17:15
Перевод: Профессиональный одноголосый

Качество: WEB-DL 1080p
Видео: MPEG-4 AVC, 10000 Кбит/с, 1440x1080
Аудио 1: Русский (AC3, 2 ch, 192 Кбит/с) | Одноголосый закадровый - Ingvar55 (Светла)
Аудио 2: Английский (E-AC3, 2 ch, 224 Кбит/с)
Субтитры: Английские



General
Unique ID : 105946857400593408275077794110068012171 (0x4FB49F5D598320FAE4ADC6FD08A4B48B)
Complete name : Romance in Manhattan (1935) WEB-DL 1080p .mkv
Format : Matroska
Format version : Version 4
File size : 5.58 GiB
Duration : 1 h 17 min
Overall bit rate : 10.3 Mb/s
Movie name : Romance in Manhattan (1935)
Encoded date : UTC 2020-06-28 21:13:29
Writing application : mkvmerge v21.0.0 ('Tardigrades Will Inherit The Earth') 64-bit
Writing library : libebml v1.3.5 + libmatroska v1.4.8

Video
ID : 1
Format : AVC
Format/Info : Advanced Video Codec
Format profile : High@L4
Format settings : CABAC / 4 Ref Frames
Format settings, CABAC : Yes
Format settings, Reference frames : 4 frames
Codec ID : V_MPEG4/ISO/AVC
Duration : 1 h 17 min
Bit rate mode : Constant
Bit rate : 10 000 kb/s
Width : 1 440 pixels
Height : 1 080 pixels
Display aspect ratio : 1.370
Original display aspect ratio : 4:3
Frame rate mode : Constant
Frame rate : 23.976 (24000/1001) FPS
Color space : YUV
Chroma subsampling : 4:2:0
Bit depth : 8 bits
Scan type : Progressive
Bits/(Pixel*Frame) : 0.268
Stream size : 5.35 GiB (96%)
Language : Russian
Default : Yes
Forced : No
Color range : Limited
Color primaries : BT.709
Transfer characteristics : BT.709
Matrix coefficients : BT.709

Audio #1
ID : 2
Format : AC-3
Format/Info : Audio Coding 3
Commercial name : Dolby Digital
Codec ID : A_AC3
Duration : 1 h 17 min
Bit rate mode : Constant
Bit rate : 192 kb/s
Channel(s) : 2 channels
Channel layout : L R
Sampling rate : 48.0 kHz
Frame rate : 31.250 FPS (1536 SPF)
Compression mode : Lossy
Stream size : 106 MiB (2%)
Title : VO - Ingvar55
Language : Russian
Service kind : Complete Main
Default : Yes
Forced : No

Audio #2
ID : 3
Format : E-AC-3
Format/Info : Enhanced AC-3
Commercial name : Dolby Digital Plus
Codec ID : A_EAC3
Duration : 1 h 17 min
Bit rate mode : Constant
Bit rate : 224 kb/s
Channel(s) : 2 channels
Channel layout : L R
Sampling rate : 48.0 kHz
Frame rate : 31.250 FPS (1536 SPF)
Compression mode : Lossy
Stream size : 124 MiB (2%)
Language : English
Service kind : Complete Main
Default : No
Forced : No

Text #1
ID : 4
Format : UTF-8
Codec ID : S_TEXT/UTF8
Codec ID/Info : UTF-8 Plain Text
Duration : 1 h 14 min
Bit rate : 79 b/s
Count of elements : 1313
Stream size : 43.6 KiB (0%)
Language : English
Default : No
Forced : No

Text #2
ID : 5
Format : UTF-8
Codec ID : S_TEXT/UTF8
Codec ID/Info : UTF-8 Plain Text
Duration : 1 h 16 min
Bit rate : 80 b/s
Count of elements : 1378
Stream size : 44.9 KiB (0%)
Title : SDH
Language : English
Default : No
Forced : No

Menu
00:00:00.000 : en:Chapter 1
00:02:24.951 : en:Chapter 2
00:06:38.204 : en:Chapter 3
00:09:03.349 : en:Chapter 4
00:12:43.569 : en:Chapter 5
00:16:38.804 : en:Chapter 6
00:18:31.917 : en:Chapter 7
00:21:05.070 : en:Chapter 8
00:24:06.251 : en:Chapter 9
00:28:26.511 : en:Chapter 10
00:31:12.677 : en:Chapter 11
00:34:09.854 : en:Chapter 12
00:36:31.996 : en:Chapter 13
00:38:45.129 : en:Chapter 14
00:41:21.285 : en:Chapter 15
00:44:41.485 : en:Chapter 16
00:46:39.603 : en:Chapter 17
00:49:49.793 : en:Chapter 18
00:51:55.919 : en:Chapter 19
00:54:21.064 : en:Chapter 20
00:57:03.226 : en:Chapter 21
00:58:53.336 : en:Chapter 22
01:02:37.560 : en:Chapter 23
01:04:53.696 : en:Chapter 24
01:07:27.850 : en:Chapter 25
01:10:58.060 : en:Chapter 26
01:12:45.167 : en:Chapter 27
01:13:34.216 : en:Chapter 28
01:16:08.370 : en:Chapter 29
01:16:51.413 : en:Chapter 30
КУБКИ

СТАЖ

МЕДАЛИ
Награды:56

За активную помощь проекту (4) Лучший по количеству кубков (16) За отличные раздачи и качество (13) За подробное оформление раздач (1) За отличные комментарии (15) Почётный форумчанин (3) Верный Сид (1) За участие в конкурсах/играх (2)

Аватара пользователя
СССР
al1ksandr
Главный Модератор-Корсар
  • Торрент
Для скачивания торрента необходимо зарегистрироваться или войти на трекер.

Вернуться в Классика зарубежного кино (фильмы до 1980 года / HD Video)



Uptime по данным Ping-Admin.Ru - сервиса мониторинга доступности сайтов
Рейтинг@Mail.ru