logo
Международный русскоязычный
торрент-трекер
Menu

Doublon
Поделиться с друзьями: 
Голосуй за Корсар и получи 400 дублонов
Рейтинг торрент трекеров - UpTracker.ru

Обыкновенный фашизм (1965, документальный, военный, история, DVDRip-AVC) - KORSAR

Сообщение filbi1976 » 08 окт 2017, 11:06

Обыкновенный фашизм

Год выпуска: 1965
Страна: СССР
Жанр: документальный, военный, история
Продолжительность: 02:10:05
Перевод: Не требуется
Режиссер: Михаил Ромм
Сценарий: Юрий Ханютин, Михаил Ромм, Майя Туровская
Оператор: Герман Лавров
Композитор: Алемдар Караманов
В ролях: Михаил Ромм, Марлен Дитрих, Йозеф Геббельс, Герман Геринг, Адольф Гитлер, Иосиф Сталин

Описание: «Показывая вам нашу картину, мы, разумеется, не рассчитывали осветить все формы такого явления как фашизм. Это невозможно в пределах одной картины. Да это невозможно хотя бы потому, что многое, очень важное, не оставило никаких следов на пленке. Не было снято. Из огромного количества материала мы отобрали то, что показалось нам самым поразительным, что дает нам возможность вместе с вами поразмышлять…»



Кодек: х264
Качество: DVDRip-AVC
Видео: MPEG-4 AVC, 720x556@768x556, 25 fps, ~3200 Кбит/с
Звук: AC3, 1 ch, 224 Кбит/с


  • x264 [info]: frame I:740 Avg QP:19.38 size: 69106
  • x264 [info]: frame P:28208 Avg QP:21.01 size: 34495
  • x264 [info]: frame B:73124 Avg QP:22.80 size: 9881
  • x264 [info]: consecutive B-frames: 4.8% 7.5% 13.6% 30.4% 18.6% 19.4% 3.2% 1.2% 0.6% 0.4% 0.2% 0.1%
Общее
Уникальный идентификатор : 187732791934683501851896296044685179716 (0x8D3C0542F6D597AEA9F9F039D8983B44)
Полное имя : D:\Обыкновенный фашизм_1965-DVDRip-AVC_KORSAR\Фашизм-1.mkv
Формат : Matroska
Версия формата : Version 2
Размер файла : 1,73 Гбайт
Продолжительность : 1 ч. 8 м.
Общий поток : 3648 Кбит/сек
Дата кодирования : UTC 2017-10-08 08:13:09
Программа кодирования : mkvmerge v5.8.0 ('No Sleep / Pillow') built on Sep 2 2012 15:37:04
Библиотека кодирования : libebml v1.2.3 + libmatroska v1.3.0

Видео
Идентификатор : 1
Формат : AVC
Формат/Информация : Advanced Video Codec
Профиль формата : High@L4.1
Параметр CABAC формата : Да
Параметр RefFrames формата : 15 кадров
Идентификатор кодека : V_MPEG4/ISO/AVC
Продолжительность : 1 ч. 8 м.
Битрейт : 3352 Кбит/сек
Ширина : 720 пикселей
Высота : 556 пикселей
Соотношение сторон : 1,381
Режим частоты кадров : Постоянный
Частота кадров : 25,000 кадров/сек
Цветовое пространство : YUV
Субдискретизация насыщенности : 4:2:0
Битовая глубина : 8 бит
Тип развёртки : Прогрессивная
Бит/(Пиксели*Кадры) : 0.335
Размер потока : 1,59 Гбайт (92%)
Библиотека кодирования : x264 core 148 r2744kMod b97ae06
Настройки программы : cabac=1 / ref=15 / deblock=1:-2:-1 / analyse=0x3:0x133 / me=umh / subme=10 / psy=1 / fade_compensate=0.00 / psy_rd=1.05:0.10 / mixed_ref=1 / me_range=32 / chroma_me=1 / trellis=2 / 8x8dct=1 / cqm=0 / deadzone=21,11 / fast_pskip=1 / chroma_qp_offset=-3 / threads=12 / lookahead_threads=3 / sliced_threads=0 / nr=0 / decimate=1 / interlaced=0 / bluray_compat=0 / constrained_intra=0 / bframes=11 / b_pyramid=2 / b_adapt=2 / b_bias=0 / direct=1 / weightb=1 / open_gop=0 / weightp=2 / keyint=250 / keyint_min=25 / scenecut=40 / intra_refresh=0 / rc=crf / mbtree=0 / crf=17.7000 / qcomp=0.63 / qpmin=0 / qpmax=39 / qpstep=4 / ip_ratio=1.40 / pb_ratio=1.30 / aq=1:1.00
Язык : English
Default : Да
Forced : Нет
Цветовой диапазон : Limited
Основные цвета : BT.601 PAL
Характеристики трансфера : BT.470 System B, BT.470 System G
Коэффициенты матрицы : BT.601

Аудио
Идентификатор : 2
Формат : AC-3
Формат/Информация : Audio Coding 3
Параметр Endianness формата : Big
Идентификатор кодека : A_AC3
Продолжительность : 1 ч. 8 м.
Вид битрейта : Постоянный
Битрейт : 224 Кбит/сек
Каналы : 1 канал
Расположение каналов : Front: C
Частота : 48,0 КГц
Частота кадров : 31,250 кадров/сек (1536 SPF)
Битовая глубина : 16 бит
Метод сжатия : С потерями
Размер потока : 109 Мбайт (6%)
Язык : Russian
ServiceKind/String : Complete Main
Default : Да
Forced : Нет

КУБКИ

СТАЖ

МЕДАЛИ
Награды:65

За помощь проекту (1) За отличные раздачи и качество (49) Верный Сид (12) За участие в конкурсах/играх (1)

Аватара пользователя
Тортуга
filbi1976
Администратор-Корсар
Раздачи группы KORSAR разрешено перезаливать спустя сутки после публикации
  • Торрент
Для скачивания торрента необходимо зарегистрироваться или войти на трекер.

Сообщение verybigpapa » 08 окт 2017, 11:27

Уважаемый filbi1976, большое спасибо. :hi: :respect:
Улыбайтесь, господа! Улыбайтесь!
КУБКИ

СТАЖ

МЕДАЛИ
Награды:39

За помощь проекту (15) Лучший по количеству кубков (9) За отличные комментарии (5) Верный Сид (10)

Аватара пользователя
СССР
verybigpapa
Заслуженный Корсар-Вип

Сообщение Sanechek » 08 окт 2017, 11:42

Сергей, благодарю! :hi: :good: :respect:
КУБКИ

СТАЖ

МЕДАЛИ
Награды:22

За помощь проекту (2) За отличные раздачи и качество (9) За подробное оформление раздач (1) Верный Сид (8)

Аватара пользователя
СССР
Sanechek
Главный Модератор-Корсар

Сообщение bukoviliadis » 08 окт 2017, 11:54

Большое спасибо за ещё один фильм Михаила Ромма. :ura: :respect:
КУБКИ

СТАЖ

МЕДАЛИ
Награды:2

Верный Сид (2)

Аватара пользователя
Russia
bukoviliadis
Уважаемый Корсар

Сообщение bagrad » 08 окт 2017, 22:04

Спасибо Сергей большое! :senks2: Это нужно не павшим, это нужно живым!!!
Dum spíro, spéro!
КУБКИ

СТАЖ

МЕДАЛИ
Награды:19

За помощь проекту (2) Лучший по количеству кубков (9) За отличные комментарии (1) Верный Сид (7)

Аватара пользователя
СССР
bagrad
Заслуженный Корсар-Вип

Сообщение filbi1976 » 09 окт 2017, 11:12

Всем пожалуйста! :hi:
КУБКИ

СТАЖ

МЕДАЛИ
Награды:65

За помощь проекту (1) За отличные раздачи и качество (49) Верный Сид (12) За участие в конкурсах/играх (1)

Аватара пользователя
Тортуга
filbi1976
Администратор-Корсар

Сообщение Bars_St » 09 окт 2017, 20:36

СПАСИБО!!! Как только забудем такое, так нам и конец.... :hi: :hi: :hi:
КУБКИ

СТАЖ

МЕДАЛИ
Награды:32

За помощь проекту (11) Лучший по количеству кубков (5) За отличные комментарии (7) Верный Сид (9)

Аватара пользователя
СССР
Bars_St
Заслуженный Корсар-Вип

Сообщение kilop74 » 07 ноя 2018, 16:54

Спасибо
КУБКИ

МЕДАЛИ


Аватара пользователя
kilop74
Опытный Корсар


Вернуться в Познавательные фильмы



Uptime по данным Ping-Admin.Ru - сервиса мониторинга доступности сайтов
Рейтинг@Mail.ru Голосуйте за наш сайт в каталоге Rubo.Ru