logo
Международный русскоязычный
торрент-трекер
Menu
"Бунт на корабле", за скачанные торрент-файлы дублоны не снимаются. Возможность оплачена пользователем filbi1976.
Doublon
Поделиться с друзьями: 
Голосуй за Корсар и получи 500 дублонов
Рейтинг торрент трекеров - UpTracker.ru

Новогодний квартирник у Маргулиса (2015, Rock, DVB)

Сообщение Korsar » 22 май 2017, 23:42

Новогодний квартирник у Маргулиса (две части)


Страна: Россия
Жанр: Rock
Продолжительность: 00:56:29+00:45:08
Год выпуска: 2015 г.
Описание: Квартирника не будет! Сегодня будет Новогодник! Встречайте Новый год в веселой компании лучших музыкантов (Найк Борзов, Алексей Кортнев, Александр Пушной, Сергей Галанин, Александр Шевченко, Валерий Сюткин) и радушного хозяина Евгения Маргулиса. Скучно не будет!
Дата эфира: 31.12.2015 - 01.01.2016
Треклист:
Часть 1
01. Песня Зайца и Волка
02. Верхом на звезде - Найк Борзов
03. Ради Любви - Найк Борзов
04. Новый год и Белка - Мангo-Манго
05. Три года ты мне снилась - Игорь Угольников
06. Матильда - Сергей Галанин
07. Ты да я, да мы с тобой - Сергей Галанин & Александр Пушной
08. Будет все, как ты захочешь - Александр Шевченко
09. А снег идет - Валерий Сюткин
10. Кабы не было зимы - Варвара Визбор
11. Рассказ женщины - Варвара Визбор
12. Снег идет - Алексей Кортнев
13. Если б не было - Алексей Кортнев
Часть 2
01. Песенка о белых медведях - Алексей Кортнев - отсутствует!
02. Невезуха - Александр Пушной & Виктория Айзентир
03. Серега, вынеси елку - Николай Гринько
04. Желтые глаза - Евгений Феклистов
05. Не окраине - Александр Ф. Скляр
06. Три звезды - Рекорд Оркестр
07. Лада-седан - Рекорд Оркестр
08. Новый год в кафе - Василий Уриевский & Александр Пушной
09. Разговор со счастьем - Василий Уриевский & Александр Пушной
Источник: собственный рип
Качество: DVB
Контейнер: TS/M2TS
Видео кодек: MPEG2
Аудио кодек: MP2
Видео: MPEG Video 720×576 (4:3) 2740 Kbps 25.000 fps
Аудио: MPEG Audio Layer 2 48000Hz stereo 192 kbps 2 channels
Код:
Код: Выделить всё
Общее
Идентификатор                            : 1 (0x1)
Полное имя                               : P:\Квартирник у Маргулиса\КуМ_20151231_НОВОГОДНИЙ КВАРТИРНИК_1_DVB.ts
Формат                                   : MPEG-TS
Размер файла                             : 1,48 Гбайт
Продолжительность                        : 56 м.
Режим общего битрейта                    : Переменный
Общий поток                              : 3739 Кбит/сек
Видео
Идентификатор                            : 325 (0x145)
Идентификатор меню                       : 1 (0x1)
Формат                                   : MPEG Video
Версия формата                           : Version 2
Профиль формата                          : Main@Main
Параметр BVOP формата                    : Да
Параметр матрицы формата                 : Выборочная
Параметр GOP формата                     : Variable
Структура изображения                    : Frame
Идентификатор кодека                     : 2
Продолжительность                        : 56 м.
Вид битрейта                             : Переменный
Битрейт                                  : 3360 Кбит/сек
Максимальный битрейт                     : 15,0 Мбит/сек
Ширина                                   : 720 пикселей
Высота                                   : 576 пикселей
Соотношение сторон                       : 4:3
Частота кадров                           : 25,000 кадров/сек
Стандарт вещания                         : PAL
Цветовое пространство                    : YUV
Субдискретизация насыщенности            : 4:2:0
Битовая глубина                          : 8 бит
Тип развёртки                            : Чересстрочная
Порядок развёртки                        : Верхнее поле первое
Метод сжатия                             : С потерями
Бит/(Пиксели*Кадры)                      : 0.324
Временной код первого кадра              : 00:00:00:00
Оригинал временного кода                 : Group of pictures header
GOP, открыто/закрыто                     : Открыто
GOP, открыто/закрыто на первом кадре     : Закрыто
Размер потока                            : 1,33 Гбайт (90%)
Аудио
Идентификатор                            : 405 (0x195)
Идентификатор меню                       : 1 (0x1)
Формат                                   : MPEG Audio
Версия формата                           : Version 1
Профиль формата                          : Layer 2
Идентификатор кодека                     : 3
Продолжительность                        : 56 м.
Вид битрейта                             : Постоянный
Битрейт                                  : 192 Кбит/сек
Каналы                                   : 2 канала
Частота                                  : 48,0 КГц
Метод сжатия                             : С потерями
Размер потока                            : 77,6 Мбайт (5%)
Язык                                     : Russian

Код:
Код: Выделить всё
Общее
Идентификатор                            : 1 (0x1)
Полное имя                               : P:\Квартирник у Маргулиса\КуМ_20151231_НОВОГОДНИЙ КВАРТИРНИК_2_DVB.ts
Формат                                   : MPEG-TS
Размер файла                             : 1,26 Гбайт
Продолжительность                        : 45 м.
Режим общего битрейта                    : Переменный
Общий поток                              : 3986 Кбит/сек
Видео
Идентификатор                            : 325 (0x145)
Идентификатор меню                       : 1 (0x1)
Формат                                   : MPEG Video
Версия формата                           : Version 2
Профиль формата                          : Main@Main
Параметр BVOP формата                    : Да
Параметр матрицы формата                 : Выборочная
Параметр GOP формата                     : Variable
Структура изображения                    : Frame
Идентификатор кодека                     : 2
Продолжительность                        : 45 м.
Вид битрейта                             : Переменный
Битрейт                                  : 3595 Кбит/сек
Максимальный битрейт                     : 15,0 Мбит/сек
Ширина                                   : 720 пикселей
Высота                                   : 576 пикселей
Соотношение сторон                       : 4:3
Частота кадров                           : 25,000 кадров/сек
Стандарт вещания                         : PAL
Цветовое пространство                    : YUV
Субдискретизация насыщенности            : 4:2:0
Битовая глубина                          : 8 бит
Тип развёртки                            : Чересстрочная
Порядок развёртки                        : Верхнее поле первое
Метод сжатия                             : С потерями
Бит/(Пиксели*Кадры)                      : 0.347
Временной код первого кадра              : 00:00:00:00
Оригинал временного кода                 : Group of pictures header
GOP, открыто/закрыто                     : Открыто
GOP, открыто/закрыто на первом кадре     : Закрыто
Размер потока                            : 1,13 Гбайт (90%)
Аудио
Идентификатор                            : 405 (0x195)
Идентификатор меню                       : 1 (0x1)
Формат                                   : MPEG Audio
Версия формата                           : Version 1
Профиль формата                          : Layer 2
Идентификатор кодека                     : 3
Продолжительность                        : 45 м.
Вид битрейта                             : Постоянный
Битрейт                                  : 192 Кбит/сек
Каналы                                   : 2 канала
Частота                                  : 48,0 КГц
Метод сжатия                             : С потерями
Размер потока                            : 62,0 Мбайт (5%)
Язык                                     : Russian


По техническим причинам отсутствует номер "Песенка о белых медведях". По возможности постараемся восполнить утраченное.
КУБКИ

СТАЖ

МЕДАЛИ
Награды:9

Лучший по количеству кубков (1) За отличные раздачи и качество (2) За отличные комментарии (2) Почётный форумчанин (2) Верный Сид (2)

Аватара пользователя
СССР
Korsar
Заслуженный Корсар-Вип+
  • Торрент
Для скачивания торрента необходимо зарегистрироваться или войти на трекер.

Вернуться в Видеоклипы



Uptime по данным Ping-Admin.Ru - сервиса мониторинга доступности сайтов
Рейтинг@Mail.ru Голосуйте за наш сайт в каталоге Rubo.Ru