logo
Международный русскоязычный
торрент-трекер
Menu

Doublon
Поделиться с друзьями: 
Голосуй за Корсар и получи 150 дублонов
Рейтинг торрент трекеров - UpTracker.ru

Ночь в музее: Трилогия / Night at the Museum: Trilogy (2006-2014, фэнтези, боевик, комедия, приключения, семейный, BDRemux 1080p)

Сообщение kisa1980 » 02 май 2018, 21:35



Название: Ночь в музее: Трилогия
Оригинальное название: Night at the Museum: Trilogy
Год выхода: 2006, 2009 2014 г.,
Жанр: Фэнтези, боевик, комедия, приключения, семейный
Продолжительность: 01:48:35 | 01:44:43 | 01:37:48


#777
Год выпуска: 2006
Страна: США
Студия: 1492 Pictures, 20th Century Fox Film Corporation, 21 Laps Entertainment
Жанр: Фэнтези, боевик, комедия, приключения, семейный
Продолжительность: 01:48:35
Перевод: Дублированный, профессиональный двухголосый, авторский одноголосый, любительский одноголосый
Режиссер: Шон Леви / Shawn Levy
В ролях: Бен Стиллер, Джэйк Черри, Карла Гуджино, Робин Уильямс, Стив Куган, Оуэн Уилсон, Дик Ван Дайк, Микки Руни, Билл Коббс, Рики Джервэйс, Ким Рэйвер, Патрик Галлахер, Рами Малек, Пьерфранческо Фавино, Чарльз К. Мёрфи, Мицуо Пек, Керри ван дер Грайнд, Дэн Риззуто, Мэттью Харрисон, Джоди Расикот, Пол Радд, Энн Мира, Мартин Кристофер, Мартин Симс, Рэнди Ли, Дэррил Квон, Джералд Вонг, Пол Чи-пинг Чэн, Тигл Ф. Бужер, Пэт Кирнан.

Описание: Молодой человек в поисках работы попадает в музей, где приступает к обязанностям ночного сторожа. Оказывается, не такая это простая работа, как могло показаться на первый взгляд. Ведь самое главное — не только не дать никому войти в музей, но и не позволить никому и ничему из музея выйти.



Тип релиза: BDRemux 1080p
Контейнер: MKV
Видео: 1920x1080p (1.85:1), 23.976 fps, H.264 ~ 18515 kbps
Аудио 1: Russian / DTS / 5.1 / 48 kHz / 768 kbps |Дубляж, Невафильм|
Аудио 2: Ukrainian: 48 kHz, AC3, 3/2 (L,C,R,l,r) + LFE ch, ~ 448 kbps avg |Дубляж, Blu-ray CEE|
Аудио 3: Ukrainian: 48 kHz, AC3, 2/0 (L,R) ch, ~ 192 kbps avg |Дубляж, 1+1|
Аудио 4: Russian / DTS-HD Master Audio / 5.1 / 48 kHz / 3699 kbps / 24-bit (DTS Core: 5.1 / 48 kHz / 1509 kbps / 24-bit)|Пётр Гланц, Инна Королева|
Аудио 5: Russian / DTS-HD Master Audio / 5.1 / 48 kHz / 3710 kbps / 24-bit (DTS Core: 5.1 / 48 kHz / 1509 kbps / 24-bit)|Вячеслав Котов|
Аудио 6: Russian / DTS-HD Master Audio / 5.1 / 48 kHz / 3699 kbps / 24-bit (DTS Core: 5.1 / 48 kHz / 1509 kbps / 24-bit)|Владимир Королев|
Аудио 7: Russian / DTS-HD Master Audio / 5.1 / 48 kHz / 3700 kbps / 24-bit (DTS Core: 5.1 / 48 kHz / 1509 kbps / 24-bit)|Юрий Немахов|
Аудио 8: Russian / DTS-HD Master Audio / 5.1 / 48 kHz / 3697 kbps / 24-bit (DTS Core: 5.1 / 48 kHz / 1509 kbps / 24-bit)|Андрей Дольский|
Аудио 9: English / DTS-HD Master Audio / 5.1 / 48 kHz / 3674 kbps / 24-bit (DTS Core: 5.1 / 48 kHz / 1509 kbps / 24-bit)|Оригинал|
Аудио 10: English 48 kHz, AC3 Dolby Digital, L R ch; 224 kbps avg |Комментарии режиссёра|
Аудио 11: English 48 kHz, AC3 Dolby Digital, L R ch; 192 kbps avg |Комментарии сценариста|
Субтитры: Русские, украинские, английские

Общее
Уникальный идентификатор : 211442407476493561907137480348113802435 (0x9F12538F6C9CD2B88A062A8309D794C3)
Полное имя : K:\V.S.P\MOVIE\Benjamin Edward_[Ben]_Stiller\Night at the Museum_trilogy_[2006, 2009, 2014]_\Night at the Museum_2006г_Benjamin Edward_[Ben]_Stiller.mkv
Формат : Matroska
Версия формата : Version 4 / Version 2
Размер файла : 32,2 Гбайт
Продолжительность : 1 ч. 48 м.
Режим общего битрейта : Переменный
Общий поток : 42,5 Мбит/сек
Название фильма : Night at the Museum_2006г_Benjamin Edward_[Ben]_Stiller
Дата кодирования : UTC 2017-01-31 16:41:09
Программа кодирования : mkvmerge v6.9.1 ('Blue Panther') 64bit built on Apr 18 2014 18:23:38
Библиотека кодирования : libebml v1.3.0 + libmatroska v1.4.1

Видео
Идентификатор : 1
Формат : AVC
Формат/Информация : Advanced Video Codec
Профиль формата : High@L4.1
Параметр CABAC формата : Да
Параметр ReFrames формата : 4 кадра
Идентификатор кодека : V_MPEG4/ISO/AVC
Продолжительность : 1 ч. 48 м.
Вид битрейта : Переменный
Максимальный битрейт : 37,0 Мбит/сек
Ширина : 1920 пикселей
Высота : 1080 пикселей
Соотношение сторон : 16:9
Режим частоты кадров : Постоянный
Частота кадров : 23,976 кадра/сек
Цветовое пространство : YUV
Субдискретизация насыщенности : 4:2:0
Битовая глубина : 8 бит
Тип развёртки : Прогрессивная
Заголовок : Night at the Museum_2006г_Benjamin Edward_[Ben]_Stiller
Язык : English
Default : Да
Forced : Нет
Основные цвета : BT.709
Характеристики трансфера : BT.709
Коэффициенты матрицы : BT.709

Аудио #1
Идентификатор : 2
Формат : DTS
Формат/Информация : Digital Theater Systems
Режим : 16
Параметр Endianness формата : Big
Идентификатор кодека : A_DTS
Продолжительность : 1 ч. 48 м.
Вид битрейта : Постоянный
Битрейт : 768 Кбит/сек
Каналы : 6 каналов
Расположение каналов : Front: L C R, Side: L R, LFE
Частота : 48,0 КГц
Битовая глубина : 24 бит
Метод сжатия : С потерями
Размер потока : 597 Мбайт (2%)
Заголовок : |Невафильм_2006г|
Язык : Russian
Default : Да
Forced : Нет

Аудио #2
Идентификатор : 3
Формат : AC-3
Формат/Информация : Audio Coding 3
Расширение режима : CM (complete main)
Параметр Endianness формата : Big
Идентификатор кодека : A_AC3
Продолжительность : 1 ч. 48 м.
Вид битрейта : Постоянный
Битрейт : 448 Кбит/сек
Каналы : 6 каналов
Расположение каналов : Front: L C R, Side: L R, LFE
Частота : 48,0 КГц
Битовая глубина : 16 бит
Метод сжатия : С потерями
Размер потока : 348 Мбайт (1%)
Заголовок : |Дубляж, Blu-ray CEE|
Язык : Ukrainian
Default : Нет
Forced : Нет

Аудио #3
Идентификатор : 4
Формат : AC-3
Формат/Информация : Audio Coding 3
Расширение режима : CM (complete main)
Параметр Endianness формата : Big
Идентификатор кодека : A_AC3
Продолжительность : 1 ч. 48 м.
Вид битрейта : Постоянный
Битрейт : 192 Кбит/сек
Каналы : 2 канала
Расположение каналов : Front: L R
Частота : 48,0 КГц
Битовая глубина : 16 бит
Метод сжатия : С потерями
Размер потока : 149 Мбайт (0%)
Заголовок : |Дубляж, 1+1|
Язык : Ukrainian
Default : Нет
Forced : Нет

Аудио #4
Идентификатор : 5
Формат : DTS
Формат/Информация : Digital Theater Systems
Профиль формата : MA / Core
Режим : 16
Параметр Endianness формата : Big
Идентификатор кодека : A_DTS
Продолжительность : 1 ч. 48 м.
Вид битрейта : Переменный
Битрейт : Неизвестно / 1509 Кбит/сек
Каналы : 6 каналов
Расположение каналов : Front: L C R, Side: L R, LFE
Частота : 48,0 КГц
Битовая глубина : 24 бит
Метод сжатия : Без потерь / Lossy
Заголовок : |Иващенко, Пётр Александрович_[Гланц]_ & Королева, Инна|
Язык : Russian
Default : Нет
Forced : Нет

Аудио #5
Идентификатор : 6
Формат : DTS
Формат/Информация : Digital Theater Systems
Профиль формата : MA / Core
Режим : 16
Параметр Endianness формата : Big
Идентификатор кодека : A_DTS
Продолжительность : 1 ч. 48 м.
Вид битрейта : Переменный
Битрейт : Неизвестно / 1509 Кбит/сек
Каналы : 6 каналов
Расположение каналов : Front: L C R, Side: L R, LFE
Частота : 48,0 КГц
Битовая глубина : 24 бит
Метод сжатия : Без потерь / Lossy
Заголовок : |Котов, Вячеслав|
Язык : Russian
Default : Нет
Forced : Нет

Аудио #6
Идентификатор : 7
Формат : DTS
Формат/Информация : Digital Theater Systems
Профиль формата : MA / Core
Режим : 16
Параметр Endianness формата : Big
Идентификатор кодека : A_DTS
Продолжительность : 1 ч. 48 м.
Вид битрейта : Переменный
Битрейт : Неизвестно / 1509 Кбит/сек
Каналы : 6 каналов
Расположение каналов : Front: L C R, Side: L R, LFE
Частота : 48,0 КГц
Битовая глубина : 24 бит
Метод сжатия : Без потерь / Lossy
Заголовок : |Королев, Владимир|
Язык : Russian
Default : Нет
Forced : Нет

Аудио #7
Идентификатор : 8
Формат : DTS
Формат/Информация : Digital Theater Systems
Профиль формата : MA / Core
Режим : 16
Параметр Endianness формата : Big
Идентификатор кодека : A_DTS
Продолжительность : 1 ч. 48 м.
Вид битрейта : Переменный
Битрейт : Неизвестно / 1509 Кбит/сек
Каналы : 6 каналов
Расположение каналов : Front: L C R, Side: L R, LFE
Частота : 48,0 КГц
Битовая глубина : 24 бит
Метод сжатия : Без потерь / Lossy
Заголовок : |Немахов, Юрий Геннадьевич|
Язык : Russian
Default : Нет
Forced : Нет

Аудио #8
Идентификатор : 9
Формат : DTS
Формат/Информация : Digital Theater Systems
Профиль формата : MA / Core
Режим : 16
Параметр Endianness формата : Big
Идентификатор кодека : A_DTS
Продолжительность : 1 ч. 48 м.
Вид битрейта : Переменный
Битрейт : Неизвестно / 1509 Кбит/сек
Каналы : 6 каналов
Расположение каналов : Front: L C R, Side: L R, LFE
Частота : 48,0 КГц
Битовая глубина : 24 бит
Метод сжатия : Без потерь / Lossy
Заголовок : |Дольский, Андрей Игоревич|
Язык : Russian
Default : Нет
Forced : Нет

Аудио #9
Идентификатор : 10
Формат : DTS
Формат/Информация : Digital Theater Systems
Профиль формата : MA / Core
Режим : 16
Параметр Endianness формата : Big
Идентификатор кодека : A_DTS
Продолжительность : 1 ч. 48 м.
Вид битрейта : Переменный
Битрейт : Неизвестно / 1509 Кбит/сек
Каналы : 6 каналов
Расположение каналов : Front: L C R, Side: L R, LFE
Частота : 48,0 КГц
Битовая глубина : 24 бит
Метод сжатия : Без потерь / Lossy
Заголовок : |original|
Язык : English
Default : Нет
Forced : Нет

Аудио #10
Идентификатор : 11
Формат : AC-3
Формат/Информация : Audio Coding 3
Расширение режима : CM (complete main)
Параметр Endianness формата : Big
Идентификатор кодека : A_AC3
Продолжительность : 1 ч. 48 м.
Вид битрейта : Постоянный
Битрейт : 224 Кбит/сек
Каналы : 2 канала
Расположение каналов : Front: L R
Частота : 48,0 КГц
Битовая глубина : 16 бит
Метод сжатия : С потерями
Размер потока : 174 Мбайт (1%)
Заголовок : |коментарі режиссера_Shawn Levy_|
Язык : Russian
Default : Нет
Forced : Нет

Аудио #11
Идентификатор : 12
Формат : AC-3
Формат/Информация : Audio Coding 3
Расширение режима : CM (complete main)
Параметр Endianness формата : Big
Идентификатор кодека : A_AC3
Продолжительность : 1 ч. 48 м.
Вид битрейта : Постоянный
Битрейт : 192 Кбит/сек
Каналы : 2 канала
Расположение каналов : Front: L R
Частота : 48,0 КГц
Битовая глубина : 16 бит
Метод сжатия : С потерями
Размер потока : 149 Мбайт (0%)
Заголовок : |коментарі сценаристів_Thomas Lennon & Robert Ben Garant _|
Язык : Russian
Default : Нет
Forced : Нет

Текст #1
Идентификатор : 13
Формат : UTF-8
Идентификатор кодека : S_TEXT/UTF8
Идентификатор кодека/Информация : UTF-8 Plain Text
Заголовок : captions
Язык : Russian
Default : Да
Forced : Нет

Текст #2
Идентификатор : 14
Формат : UTF-8
Идентификатор кодека : S_TEXT/UTF8
Идентификатор кодека/Информация : UTF-8 Plain Text
Заголовок : full
Язык : Russian
Default : Нет
Forced : Нет

Текст #3
Идентификатор : 15
Формат : UTF-8
Идентификатор кодека : S_TEXT/UTF8
Идентификатор кодека/Информация : UTF-8 Plain Text
Заголовок : commentary
Язык : Russian
Default : Нет
Forced : Нет

Текст #4
Идентификатор : 16
Формат : UTF-8
Идентификатор кодека : S_TEXT/UTF8
Идентификатор кодека/Информация : UTF-8 Plain Text
Заголовок : captions
Язык : Ukrainian
Default : Нет
Forced : Нет

Текст #5
Идентификатор : 17
Формат : UTF-8
Идентификатор кодека : S_TEXT/UTF8
Идентификатор кодека/Информация : UTF-8 Plain Text
Заголовок : full
Язык : Ukrainian
Default : Нет
Forced : Нет

Текст #6
Идентификатор : 18
Формат : UTF-8
Идентификатор кодека : S_TEXT/UTF8
Идентификатор кодека/Информация : UTF-8 Plain Text
Заголовок : full
Язык : English
Default : Нет
Forced : Нет

Меню
00:00:00.000 : en:Main Titles
00:03:10.815 : en:Ordinary Guy
00:08:35.139 : en:Job Interview
00:14:18.899 : en:The Grand Tour
00:17:18.495 : en:First Night in the Museum
00:24:18.832 : en:The Instruction Manual
00:31:54.746 : en:Miniature People
00:35:57.154 : en:Teddy Roosevelt
00:41:28.402 : en:History Lesson
00:47:53.245 : en:Evil Scheme
00:50:51.298 : en:Better Prepared
00:55:57.395 : en:Sakagawea
00:57:21.938 : en:Open Window
01:02:33.791 : en:The Light of Day
01:06:48.963 : en:Revealing the Secret
01:13:15.474 : en:Thieves
01:18:00.759 : en:Ahkmenrah Awakens
01:21:45.483 : en:Attila the Hun
01:24:44.662 : en:A True Leader
01:27:21.653 : en:Protecting the Museum
01:31:31.652 : en:Stopping Cecil
01:34:04.847 : en:Getting Home Safely
01:38:54.136 : en:A Great Man
01:44:04.696 : en:End Titles
#777
Год выпуска: 2009
Страна: США
Студия: 1492 Pictures, 20th Century Fox Film Corporation, 21 Laps Entertainment
Жанр: Фэнтези, боевик, комедия, приключения, семейный
Продолжительность: 01:44:43
Перевод: Дублированный, авторский одноголосый, любительский одноголосый
Режиссер: Шон Леви / Shawn Levy
В ролях:Бен Стиллер /Ben Stiller/, Эми Адамс /Amy Adams/, Оуэн Уилсон /Owen Wilson/, Хэнк Азария /Hank Azaria/, Робин Уильямс /Robin Williams/, Кристофер Гест /Christopher Guest/, Ален Шаба /Alain Chabat/, Стив Кугэн /Steve Coogan/, Рики Джервэйс /Ricky Gervais/, Билл Хэйдер /Bill Hader/

Описание: Экспонаты Музея Естественной истории живут обычной жизнью. По коридорам бегает скелет динозавра, герои гражданской войны сражаются друг с другом, древние люди добывают огонь, миниатюрные ковбои выясняют отношения с древними Римлянами, Теодор Рузвельт философствует о смысле жизни и ухаживает за индианкой. Никто из этой разношерстной компании даже не представляет, что скоро им предстоит познакомиться с новыми экспонатами. Среди них окажется и та, что разобьет сердце охраннику Ларри.



Тип релиза: BDRemux 1080p
Контейнер: MKV
Видео: 1920x1080p (2.35:1), 23.976 fps, H.264 ~ 20199 kbps
Аудио 1: Russian / DTS / 5.1 / 48 kHz / 768 kbps |Дубляж, Невафильм|
Аудио 2: Ukrainian: 48 kHz, AC3, 3/2 (L,C,R,l,r) + LFE ch, ~ 448 kbps avg |Дубляж, Blu-ray CEE|
Аудио 3: Russian / DTS-HD Master Audio / 5.1 / 48 kHz / 3794 kbps / 24-bit (DTS Core: 5.1 / 48 kHz / 1509 kbps / 24-bit)|Вячеслав Котов|
Аудио 4: Russian / DTS-HD Master Audio / 5.1 / 48 kHz / 3799 kbps / 24-bit (DTS Core: 5.1 / 48 kHz / 1509 kbps / 24-bit)|Юрий Немахов|
Аудио 5: Russian / DTS-HD Master Audio / 5.1 / 48 kHz / 3781 kbps / 24-bit (DTS Core: 5.1 / 48 kHz / 1509 kbps / 24-bit)|Андрей Дольский|
Аудио 6: English / DTS-HD Master Audio / 5.1 / 48 kHz / 3762 kbps / 24-bit (DTS Core: 5.1 / 48 kHz / 1509 kbps / 24-bit)|Оригинал|
Аудио 7: English 48 kHz, AC3 Dolby Digital, L R ch; 224 kbps avg |Комментарии режиссёра|
Аудио 8: English 48 kHz, AC3 Dolby Digital, L R ch; 192 kbps avg |Коментарии сценариста|
Аудио 9: English 48 kHz, AC3 Dolby Digital, L R ch; 224 kbps avg |Descriptive|
Субтитры: Русские, украинские, английские

Общее
Уникальный идентификатор : 221955735766650521619349168068558035791 (0xA6FB1EAA2C8BEEA0A2E6F6DEB1BB9B4F)
Полное имя : K:\V.S.P\MOVIE\Benjamin Edward_[Ben]_Stiller\Night at the Museum_trilogy_[2006, 2009, 2014]_\Night at the Museum_[Battle of the Smithsonian]_2009г_Benjamin Edward_[Ben]_Stiller.mkv
Формат : Matroska
Версия формата : Version 4 / Version 2
Размер файла : 27,3 Гбайт
Продолжительность : 1 ч. 44 м.
Режим общего битрейта : Переменный
Общий поток : 37,3 Мбит/сек
Название фильма : Night at the Museum_[Battle of the Smithsonian]_2009г_Benjamin Edward_[Ben]_Stiller
Дата кодирования : UTC 2017-02-04 05:02:35
Программа кодирования : mkvmerge v6.9.1 ('Blue Panther') 64bit built on Apr 18 2014 18:23:38
Библиотека кодирования : libebml v1.3.0 + libmatroska v1.4.1

Видео
Идентификатор : 1
Формат : AVC
Формат/Информация : Advanced Video Codec
Профиль формата : High@L4.1
Параметр CABAC формата : Да
Параметр ReFrames формата : 4 кадра
Идентификатор кодека : V_MPEG4/ISO/AVC
Продолжительность : 1 ч. 44 м.
Вид битрейта : Переменный
Максимальный битрейт : 33,4 Мбит/сек
Ширина : 1920 пикселей
Высота : 1080 пикселей
Соотношение сторон : 16:9
Режим частоты кадров : Постоянный
Частота кадров : 23,976 кадра/сек
Цветовое пространство : YUV
Субдискретизация насыщенности : 4:2:0
Битовая глубина : 8 бит
Тип развёртки : Прогрессивная
Заголовок : Night at the Museum_[Battle of the Smithsonian]_2009г_Benjamin Edward_[Ben]_Stiller
Язык : English
Default : Да
Forced : Нет
Основные цвета : BT.709
Характеристики трансфера : BT.709
Коэффициенты матрицы : BT.709

Аудио #1
Идентификатор : 2
Формат : DTS
Формат/Информация : Digital Theater Systems
Режим : 16
Параметр Endianness формата : Big
Идентификатор кодека : A_DTS
Продолжительность : 1 ч. 44 м.
Вид битрейта : Постоянный
Битрейт : 768 Кбит/сек
Каналы : 6 каналов
Расположение каналов : Front: L C R, Side: L R, LFE
Частота : 48,0 КГц
Битовая глубина : 24 бит
Метод сжатия : С потерями
Размер потока : 575 Мбайт (2%)
Заголовок : |Невафильм_2009г|
Язык : Russian
Default : Да
Forced : Нет

Аудио #2
Идентификатор : 3
Формат : AC-3
Формат/Информация : Audio Coding 3
Расширение режима : CM (complete main)
Параметр Endianness формата : Big
Идентификатор кодека : A_AC3
Продолжительность : 1 ч. 44 м.
Вид битрейта : Постоянный
Битрейт : 448 Кбит/сек
Каналы : 6 каналов
Расположение каналов : Front: L C R, Side: L R, LFE
Частота : 48,0 КГц
Битовая глубина : 16 бит
Метод сжатия : С потерями
Размер потока : 336 Мбайт (1%)
Заголовок : |Дубляж, Blu-ray CEE|
Язык : Ukrainian
Default : Нет
Forced : Нет

Аудио #3
Идентификатор : 4
Формат : DTS
Формат/Информация : Digital Theater Systems
Профиль формата : MA / Core
Режим : 16
Параметр Endianness формата : Big
Идентификатор кодека : A_DTS
Продолжительность : 1 ч. 44 м.
Вид битрейта : Переменный
Битрейт : Неизвестно / 1509 Кбит/сек
Каналы : 6 каналов
Расположение каналов : Front: L C R, Side: L R, LFE
Частота : 48,0 КГц
Битовая глубина : 24 бит
Метод сжатия : Без потерь / Lossy
Заголовок : |Котов, Вячеслав|
Язык : Russian
Default : Нет
Forced : Нет

Аудио #4
Идентификатор : 5
Формат : DTS
Формат/Информация : Digital Theater Systems
Профиль формата : MA / Core
Режим : 16
Параметр Endianness формата : Big
Идентификатор кодека : A_DTS
Продолжительность : 1 ч. 44 м.
Вид битрейта : Переменный
Битрейт : Неизвестно / 1509 Кбит/сек
Каналы : 6 каналов
Расположение каналов : Front: L C R, Side: L R, LFE
Частота : 48,0 КГц
Битовая глубина : 24 бит
Метод сжатия : Без потерь / Lossy
Заголовок : |Немахов, Юрий Геннадьевич|
Язык : Russian
Default : Нет
Forced : Нет

Аудио #5
Идентификатор : 6
Формат : DTS
Формат/Информация : Digital Theater Systems
Профиль формата : MA / Core
Режим : 16
Параметр Endianness формата : Big
Идентификатор кодека : A_DTS
Продолжительность : 1 ч. 44 м.
Вид битрейта : Переменный
Битрейт : Неизвестно / 1509 Кбит/сек
Каналы : 6 каналов
Расположение каналов : Front: L C R, Side: L R, LFE
Частота : 48,0 КГц
Битовая глубина : 24 бит
Метод сжатия : Без потерь / Lossy
Заголовок : |Дольский, Андрей Игоревич|
Язык : Russian
Default : Нет
Forced : Нет

Аудио #6
Идентификатор : 7
Формат : DTS
Формат/Информация : Digital Theater Systems
Профиль формата : MA / Core
Режим : 16
Параметр Endianness формата : Big
Идентификатор кодека : A_DTS
Продолжительность : 1 ч. 44 м.
Вид битрейта : Переменный
Битрейт : Неизвестно / 1509 Кбит/сек
Каналы : 6 каналов
Расположение каналов : Front: L C R, Side: L R, LFE
Частота : 48,0 КГц
Битовая глубина : 24 бит
Метод сжатия : Без потерь / Lossy
Заголовок : |original|
Язык : English
Default : Нет
Forced : Нет

Аудио #7
Идентификатор : 8
Формат : AC-3
Формат/Информация : Audio Coding 3
Расширение режима : CM (complete main)
Параметр Endianness формата : Big
Идентификатор кодека : A_AC3
Продолжительность : 1 ч. 44 м.
Вид битрейта : Постоянный
Битрейт : 224 Кбит/сек
Каналы : 2 канала
Расположение каналов : Front: L R
Частота : 48,0 КГц
Битовая глубина : 16 бит
Метод сжатия : С потерями
Размер потока : 168 Мбайт (1%)
Заголовок : |коментарі режиссера_Shawn Levy_|
Язык : English
Default : Нет
Forced : Нет

Аудио #8
Идентификатор : 9
Формат : AC-3
Формат/Информация : Audio Coding 3
Расширение режима : CM (complete main)
Параметр Endianness формата : Big
Идентификатор кодека : A_AC3
Продолжительность : 1 ч. 44 м.
Вид битрейта : Постоянный
Битрейт : 224 Кбит/сек
Каналы : 2 канала
Расположение каналов : Front: L R
Частота : 48,0 КГц
Битовая глубина : 16 бит
Метод сжатия : С потерями
Размер потока : 168 Мбайт (1%)
Заголовок : |коментарі сценаристів_Thomas Lennon & Robert Ben Garant_|
Язык : English
Default : Нет
Forced : Нет

Аудио #9
Идентификатор : 10
Формат : AC-3
Формат/Информация : Audio Coding 3
Расширение режима : CM (complete main)
Параметр Endianness формата : Big
Идентификатор кодека : A_AC3
Продолжительность : 1 ч. 44 м.
Вид битрейта : Постоянный
Битрейт : 448 Кбит/сек
Каналы : 6 каналов
Расположение каналов : Front: L C R, Side: L R, LFE
Частота : 48,0 КГц
Битовая глубина : 16 бит
Метод сжатия : С потерями
Размер потока : 336 Мбайт (1%)
Заголовок : |descriptive|
Язык : English
Default : Нет
Forced : Нет

Текст #1
Идентификатор : 11
Формат : UTF-8
Идентификатор кодека : S_TEXT/UTF8
Идентификатор кодека/Информация : UTF-8 Plain Text
Заголовок : captions
Язык : Russian
Default : Да
Forced : Нет

Текст #2
Идентификатор : 12
Формат : UTF-8
Идентификатор кодека : S_TEXT/UTF8
Идентификатор кодека/Информация : UTF-8 Plain Text
Заголовок : full_blu-ray
Язык : Russian
Default : Нет
Forced : Нет

Текст #3
Идентификатор : 13
Формат : UTF-8
Идентификатор кодека : S_TEXT/UTF8
Идентификатор кодека/Информация : UTF-8 Plain Text
Заголовок : full_взяты с раздачи bugariarmando
Язык : Russian
Default : Нет
Forced : Нет

Текст #4
Идентификатор : 14
Формат : UTF-8
Идентификатор кодека : S_TEXT/UTF8
Идентификатор кодека/Информация : UTF-8 Plain Text
Заголовок : commentary
Язык : Russian
Default : Нет
Forced : Нет

Текст #5
Идентификатор : 15
Формат : UTF-8
Идентификатор кодека : S_TEXT/UTF8
Идентификатор кодека/Информация : UTF-8 Plain Text
Заголовок : captions
Язык : Ukrainian
Default : Нет
Forced : Нет

Текст #6
Идентификатор : 16
Формат : UTF-8
Идентификатор кодека : S_TEXT/UTF8
Идентификатор кодека/Информация : UTF-8 Plain Text
Заголовок : full
Язык : Ukrainian
Default : Нет
Forced : Нет

Текст #7
Идентификатор : 17
Формат : UTF-8
Идентификатор кодека : S_TEXT/UTF8
Идентификатор кодека/Информация : UTF-8 Plain Text
Заголовок : full
Язык : English
Default : Нет
Forced : Нет

Меню
00:00:00.000 : :Main Titles/Packing
00:03:31.836 : :Informercial King
00:06:00.485 : :Natural History 2.0
00:08:45.316 : :Last Night
00:15:17.374 : :The Smithsonian
00:19:01.557 : :Don't Touch!
00:23:06.343 : :Gaining Access
00:27:18.803 : :Back to Life
00:30:10.058 : :The Cube of Rubik
00:34:27.273 : :Custer's Strategy
00:35:53.359 : :Through the Frame
00:39:35.831 : :New Recruits
00:45:25.514 : :Captured
00:50:48.462 : :The Other Teddy
00:56:06.821 : :No Thanks
00:59:42.245 : :Honest Abe
01:03:09.243 : :Bobblehead Physicists
01:05:57.328 : :3.14159265
01:08:16.258 : :Wonderful Amelia
01:12:20.294 : :Magic Tablet
01:18:32.916 : :Big Rescue
01:20:42.963 : :Battle of the Smithsonian
01:30:05.858 : :Key to Happiness
01:39:43.477 : :End Titles/Young Inventor
#777
Год выпуска: 2014
Страна: США
Студия: 1492 Pictures, 20th Century Fox Film Corporation, 21 Laps Entertainment
Жанр: Фэнтези, боевик, комедия, приключения, семейный
Продолжительность: 01:37:48
Перевод: Дублированный, авторский одноголосый, любительский одноголосый
Режиссер: Шон Леви / Shawn Levy
В ролях:Бен Стиллер, Робин Уильямс, Оуэн Уилсон, Стив Кугэн, Рики Джервэйс, Дэн Стивенс, Ребел Уилсон, Скайлер Джизондо, Рэми Малек, Патрик Галлахер, Мицуо Пек, Бен Кингсли, Кристал Манки, Дик Ван Дайк, Микки Руни, Билл Коббс, Андреа Мартин, Рэйчел Харрис, Мэтт Фрюэр, Брэд Гэррет, Хью Джекман, Элис Ив.

Описание: Ночной сторож Музея естественной истории в Нью-Йорке Ларри Дэйли в отчаянии: его друзья-экспонаты начинают странно себя вести, а всё потому, что оживляющая их древнеегипетская золотая пластина разрушается. Только отец фараона Ахкменра знает тайну магического артефакта, но вот беда — его мумия далеко, она выставлена в Британском музее естествознания! Команда любимых героев предпринимает беспрецедентное путешествие в Лондон. Они должны объединиться с британскими экспонатами и рискнуть всем, чтобы восстановить золотую пластину до того, как Ларри потеряет своих друзей навсегда.



Тип релиза: BDRemux 1080p
Контейнер: MKV
Видео: MPEG-4 AVC / 29009 kbps / 1920х1080 / 23,976 fps / 16:9 / High Profile 4.1
Аудио 1: Russian / DTS / 5.1 / 48 kHz / 768 kbps |Дубляж, Невафильм|
Аудио 2: Ukrainian: 48 kHz, AC3, 3/2 (L,C,R,l,r) + LFE ch, ~ 448 kbps avg |Дубляж, Blu-ray CEE|
Аудио 3: Russian / DTS-HD Master Audio / 7.1 / 48 kHz / 4902 kbps / 24-bit (DTS Core: 5.1 / 48 kHz / 1509 kbps / 24-bit)|Вячеслав Котов|
Аудио 4: Russian / DTS-HD Master Audio / 7.1 / 48 kHz / 4888 kbps / 24-bit (DTS Core: 5.1 / 48 kHz / 1509 kbps / 24-bit)|Юрий Немахов|
Аудио 5: Russian / DTS-HD Master Audio / 7.1 / 48 kHz / 4885 kbps / 24-bit (DTS Core: 5.1 / 48 kHz / 1509 kbps / 24-bit)|Андрей Дольский|
Аудио 6: English / DTS-HD Master Audio / 7.1 / 48 kHz / 4847 kbps / 24-bit (DTS Core: 5.1 / 48 kHz / 1509 kbps / 24-bit)|Оригинал|
Аудио 7: English 48 kHz, AC3 Dolby Digital, L R ch; 224 kbps avg |Комментарии режиссёра|
Аудио 8: English 48 kHz, AC3 Dolby Digital, L R ch; 448 kbps avg |Descriptive|
Субтитры: Русские, украинские, английские

Общее
Уникальный идентификатор : 237625146604830598979134540670780919673 (0xB2C4F044103AC782AD80C83C04E94F79)
Полное имя : K:\V.S.P\MOVIE\Benjamin Edward_[Ben]_Stiller\Night at the Museum_trilogy_[2006, 2009, 2014]_\Night at the Museum_[Secret of the Tomb]_2014г_Benjamin Edward_[Ben]_Stiller.mkv
Формат : Matroska
Версия формата : Version 4 / Version 2
Размер файла : 34,5 Гбайт
Продолжительность : 1 ч. 37 м.
Режим общего битрейта : Переменный
Общий поток : 50,4 Мбит/сек
Название фильма : Night at the Museum_[Secret of the Tomb]_2014г_Benjamin Edward_[Ben]_Stiller
Дата кодирования : UTC 2017-02-06 22:34:46
Программа кодирования : mkvmerge v6.9.1 ('Blue Panther') 64bit built on Apr 18 2014 18:23:38
Библиотека кодирования : libebml v1.3.0 + libmatroska v1.4.1
Attachment : Yes

Видео
Идентификатор : 1
Формат : AVC
Формат/Информация : Advanced Video Codec
Профиль формата : High@L4.1
Параметр CABAC формата : Да
Параметр ReFrames формата : 4 кадра
Идентификатор кодека : V_MPEG4/ISO/AVC
Продолжительность : 1 ч. 37 м.
Вид битрейта : Переменный
Максимальный битрейт : 31,5 Мбит/сек
Ширина : 1920 пикселей
Высота : 1080 пикселей
Соотношение сторон : 16:9
Режим частоты кадров : Постоянный
Частота кадров : 23,976 кадра/сек
Цветовое пространство : YUV
Субдискретизация насыщенности : 4:2:0
Битовая глубина : 8 бит
Тип развёртки : Прогрессивная
Заголовок : Night at the Museum_[Secret of the Tomb]_2014г_Benjamin Edward_[Ben]_Stiller
Язык : English
Default : Да
Forced : Нет

Аудио #1
Идентификатор : 2
Формат : DTS
Формат/Информация : Digital Theater Systems
Режим : 16
Параметр Endianness формата : Big
Идентификатор кодека : A_DTS
Продолжительность : 1 ч. 37 м.
Вид битрейта : Постоянный
Битрейт : 768 Кбит/сек
Каналы : 6 каналов
Расположение каналов : Front: L C R, Side: L R, LFE
Частота : 48,0 КГц
Битовая глубина : 24 бит
Метод сжатия : С потерями
Размер потока : 537 Мбайт (2%)
Заголовок : |Невафильм_2014г|
Язык : Russian
Default : Да
Forced : Нет

Аудио #2
Идентификатор : 3
Формат : AC-3
Формат/Информация : Audio Coding 3
Расширение режима : CM (complete main)
Параметр Endianness формата : Big
Идентификатор кодека : A_AC3
Продолжительность : 1 ч. 37 м.
Вид битрейта : Постоянный
Битрейт : 448 Кбит/сек
Каналы : 6 каналов
Расположение каналов : Front: L C R, Side: L R, LFE
Частота : 48,0 КГц
Битовая глубина : 16 бит
Метод сжатия : С потерями
Размер потока : 313 Мбайт (1%)
Заголовок : |Дубляж, Blu-ray CEE|
Язык : Ukrainian
Default : Нет
Forced : Нет

Аудио #3
Идентификатор : 4
Формат : DTS
Формат/Информация : Digital Theater Systems
Профиль формата : MA / Core
Режим : 16
Параметр Endianness формата : Big
Идентификатор кодека : A_DTS
Продолжительность : 1 ч. 37 м.
Вид битрейта : Переменный
Битрейт : Неизвестно / 1509 Кбит/сек
Каналы : 8 каналов / 6 каналов
Расположение каналов : Front: L C R, Side: L R, Back: L R, LFE / Front: L C R, Side: L R, LFE
Частота : 48,0 КГц
Битовая глубина : 24 бит
Метод сжатия : Без потерь / Lossy
Заголовок : |Котов, Вячеслав|
Язык : Russian
Default : Нет
Forced : Нет

Аудио #4
Идентификатор : 5
Формат : DTS
Формат/Информация : Digital Theater Systems
Профиль формата : MA / Core
Режим : 16
Параметр Endianness формата : Big
Идентификатор кодека : A_DTS
Продолжительность : 1 ч. 37 м.
Вид битрейта : Переменный
Битрейт : Неизвестно / 1509 Кбит/сек
Каналы : 8 каналов / 6 каналов
Расположение каналов : Front: L C R, Side: L R, Back: L R, LFE / Front: L C R, Side: L R, LFE
Частота : 48,0 КГц
Битовая глубина : 24 бит
Метод сжатия : Без потерь / Lossy
Заголовок : |Немахов, Юрий Геннадьевич|
Язык : Russian
Default : Нет
Forced : Нет

Аудио #5
Идентификатор : 6
Формат : DTS
Формат/Информация : Digital Theater Systems
Профиль формата : MA / Core
Режим : 16
Параметр Endianness формата : Big
Идентификатор кодека : A_DTS
Продолжительность : 1 ч. 37 м.
Вид битрейта : Переменный
Битрейт : Неизвестно / 1509 Кбит/сек
Каналы : 8 каналов / 6 каналов
Расположение каналов : Front: L C R, Side: L R, Back: L R, LFE / Front: L C R, Side: L R, LFE
Частота : 48,0 КГц
Битовая глубина : 24 бит
Метод сжатия : Без потерь / Lossy
Заголовок : |Дольский, Андрей Игоревич|
Язык : Russian
Default : Нет
Forced : Нет

Аудио #6
Идентификатор : 7
Формат : DTS
Формат/Информация : Digital Theater Systems
Профиль формата : MA / Core
Режим : 16
Параметр Endianness формата : Big
Идентификатор кодека : A_DTS
Продолжительность : 1 ч. 37 м.
Вид битрейта : Переменный
Битрейт : Неизвестно / 1509 Кбит/сек
Каналы : 8 каналов / 6 каналов
Расположение каналов : Front: L C R, Side: L R, Back: L R, LFE / Front: L C R, Side: L R, LFE
Частота : 48,0 КГц
Битовая глубина : 24 бит
Метод сжатия : Без потерь / Lossy
Заголовок : |original|
Язык : English
Default : Нет
Forced : Нет

Аудио #7
Идентификатор : 8
Формат : AC-3
Формат/Информация : Audio Coding 3
Расширение режима : CM (complete main)
Параметр Endianness формата : Big
Идентификатор кодека : A_AC3
Продолжительность : 1 ч. 37 м.
Вид битрейта : Постоянный
Битрейт : 224 Кбит/сек
Каналы : 2 канала
Расположение каналов : Front: L R
Частота : 48,0 КГц
Битовая глубина : 16 бит
Метод сжатия : С потерями
Размер потока : 157 Мбайт (0%)
Заголовок : |коментарі режиссера_Shawn Levy_|
Язык : English
Default : Нет
Forced : Нет

Аудио #8
Идентификатор : 9
Формат : AC-3
Формат/Информация : Audio Coding 3
Расширение режима : CM (complete main)
Параметр Endianness формата : Big
Идентификатор кодека : A_AC3
Продолжительность : 1 ч. 37 м.
Вид битрейта : Постоянный
Битрейт : 448 Кбит/сек
Каналы : 6 каналов
Расположение каналов : Front: L C R, Side: L R, LFE
Частота : 48,0 КГц
Битовая глубина : 16 бит
Метод сжатия : С потерями
Размер потока : 313 Мбайт (1%)
Заголовок : |descriptive|
Язык : English
Default : Нет
Forced : Нет

Текст #1
Идентификатор : 10
Формат : UTF-8
Идентификатор кодека : S_TEXT/UTF8
Идентификатор кодека/Информация : UTF-8 Plain Text
Заголовок : forced
Язык : Russian
Default : Да
Forced : Нет

Текст #2
Идентификатор : 11
Формат : UTF-8
Идентификатор кодека : S_TEXT/UTF8
Идентификатор кодека/Информация : UTF-8 Plain Text
Заголовок : full
Язык : Russian
Default : Нет
Forced : Нет

Текст #3
Идентификатор : 12
Формат : UTF-8
Идентификатор кодека : S_TEXT/UTF8
Идентификатор кодека/Информация : UTF-8 Plain Text
Заголовок : full
Язык : Ukrainian
Default : Нет
Forced : Нет

Текст #4
Идентификатор : 13
Формат : UTF-8
Идентификатор кодека : S_TEXT/UTF8
Идентификатор кодека/Информация : UTF-8 Plain Text
Заголовок : full
Язык : English
Default : Нет
Forced : Нет

Текст #5
Идентификатор : 14
Формат : UTF-8
Идентификатор кодека : S_TEXT/UTF8
Идентификатор кодека/Информация : UTF-8 Plain Text
Заголовок : SDH_full
Язык : English
Default : Нет
Forced : Нет

Текст #6
Идентификатор : 15
Формат : UTF-8
Идентификатор кодека : S_TEXT/UTF8
Идентификатор кодека/Информация : UTF-8 Plain Text
Заголовок : SDH_colored_full
Язык : English
Default : Нет
Forced : Нет

Меню
00:00:00.000 : en:00:00:00.000
00:04:34.441 : en:00:04:34.441
00:06:29.347 : en:00:06:29.347
00:09:10.884 : en:00:09:10.884
00:13:18.131 : en:00:13:18.131
00:14:43.132 : en:00:14:43.132
00:18:01.038 : en:00:18:01.038
00:19:58.906 : en:00:19:58.906
00:22:27.388 : en:00:22:27.388
00:24:47.611 : en:00:24:47.611
00:26:26.084 : en:00:26:26.084
00:29:11.583 : en:00:29:11.583
00:32:03.505 : en:00:32:03.505
00:35:50.815 : en:00:35:50.815
00:39:48.761 : en:00:39:48.761
00:44:14.735 : en:00:44:14.735
00:51:19.285 : en:00:51:19.285
00:52:38.530 : en:00:52:38.530
00:58:00.352 : en:00:58:00.352
01:01:09.624 : en:01:01:09.624
01:03:40.275 : en:01:03:40.275
01:06:44.334 : en:01:06:44.334
01:08:01.911 : en:01:08:01.911
01:11:09.640 : en:01:11:09.640
01:17:08.624 : en:01:17:08.624
01:21:45.317 : en:01:21:45.317
01:27:47.512 : en:01:27:47.512
01:31:28.274 : en:01:31:28.274
Аватара пользователя
kisa1980
Главный помощник Администратора-Корсар
 
 

Награды: 48
За помощь проекту (7) Лучший по количеству кубков (3) За отличные раздачи и качество (15) За подробное оформление раздач (4) За отличные комментарии (4) Почётный форумчанин (3) Верный Сид (8) За участие в конкурсах/играх (2)
  • Торрент
Для скачивания торрента необходимо зарегистрироваться или войти на трекер.

Вернуться в Зарубежное кино (Сборники фильмов / HD Video)



Uptime по данным Ping-Admin.Ru - сервиса мониторинга доступности сайтов
Рейтинг@Mail.ru