logo
Международный русскоязычный
торрент-трекер
Menu

Doublon
Поделиться с друзьями: 
Голосуй за Корсар и получи 150 дублонов
Рейтинг торрент трекеров - UpTracker.ru

Ночь страха / Fright Night (1985, ужасы, триллер, комедия, BDRip 720p)

Сообщение Korsar » 03 дек 2016, 19:56

Название: Ночь страха
Оригинальное название: Fright Night
Год выхода: 1985
Жанр: ужасы, триллер, комедия
Выпущено: США, Columbia Pictures, Vistar Films, Columbia Pictures Industries
Продолжительность: 01:46:26
Перевод: Профессиональный многоголосый, авторский одноголосый, любительский одноголосый
Режиссер: Том Холланд
В ролях: Крис Сарандон, Уильям Рэгсдэйл, Аманда Бирз, Родди МакДауэлл, Стивен Джеффрис, Джонатан Старк, Дороти Филдинг, Арт Эванс, Стюарт Штерн, Ник Сэвадж

О фильме: Юный поклонник ужастиков, Чарли, обнаруживает, что его сосед - вампир. Хуже того: соседу не нравится, что кто-то знает его тайну, поэтому жизнь Чарли под вопросом. Полностью отчаявшись, Чарли обращается за помощью к Питеру Винсенту, ведущему программы «Ночь страха», который якобы знает о вампирах всё.



Качество: BDRip 720p
Видео: MPEG4 AVC, 1280x532 (2.40:1), 6966 Kbps, 23.976 fps, 0.427 bpp
Аудио 1: Russian: AC3 / 48 KHz / 2 ch / 192 Kbps - |MVO, СТС|
Аудио 2: Russian: AC3 / 48 KHz / 2 ch / 192 Kbps - |VO, Radamant|
Аудио 3: Russian: AC3 / 48 KHz / 2 ch / 192 Kbps - |AVO, С. Кузнецов|
Аудио 4: Russian: AC3 / 48 KHz / 2 ch / 192 Kbps - |AVO, Л. Володарский|
Аудио 5: Russian: AC3 / 48 KHz / 2 ch / 192 Kbps - |AVO, Russianguy27|
Аудио 6: English: AC3 / 48 KHz / 6 ch / 640 Kbps - |Оригинал|
Субтитры: Английские
Навигация по главам: есть

Автор рипа: Skazhutin



General
Unique ID : 184325765679502280901199582228843543889 (0x8AABD9E5E96C8ACC9005FD6ABDA73D51)
Complete name : Fright.Night.1985.BDRip.720p.Rus.Eng.mkv
Format : Matroska
Format version : Version 2
File size : 6.50 GiB
Duration : 1h 46mn
Overall bit rate : 8 739 Kbps
Movie name : Fright Night (1985)
Encoded date : UTC 2012-02-20 13:43:59
Writing application : mkvmerge v5.3.0 ('I could have danced') built on Feb 9 2012 10:38:07
Writing library : libebml v1.2.3 + libmatroska v1.3.0
Attachment : Yes / Yes

Video
ID : 1
Format : AVC
Format/Info : Advanced Video Codec
Format profile : High@L4.1
Format settings, CABAC : Yes
Format settings, ReFrames : 11 frames
Codec ID : V_MPEG4/ISO/AVC
Duration : 1h 46mn
Bit rate : 6 966 Kbps
Width : 1 280 pixels
Height : 532 pixels
Display aspect ratio : 2.40:1
Frame rate : 23.976 fps
Color space : YUV
Chroma subsampling : 4:2:0
Bit depth : 8 bits
Scan type : Progressive
Bits/(Pixel*Frame) : 0.427
Stream size : 5.18 GiB (80%)
Title : Fright Night (1985)
Writing library : x264 core 120 r2164 da19765
Encoding settings : cabac=1 / ref=11 / deblock=1:-3:-3 / analyse=0x3:0x113 / me=umh / subme=11 / psy=1 / psy_rd=0.90:0.00 / mixed_ref=1 / me_range=48 / chroma_me=1 / trellis=2 / 8x8dct=1 / cqm=0 / deadzone=21,11 / fast_pskip=1 / chroma_qp_offset=-2 / threads=12 / sliced_threads=0 / nr=0 / decimate=1 / interlaced=0 / bluray_compat=0 / constrained_intra=0 / bframes=11 / b_pyramid=2 / b_adapt=2 / b_bias=0 / direct=1 / weightb=1 / open_gop=0 / weightp=2 / keyint=250 / keyint_min=23 / scenecut=40 / intra_refresh=0 / rc_lookahead=40 / rc=crf / mbtree=0 / crf=17.5 / qcomp=0.65 / qpmin=0 / qpmax=69 / qpstep=4 / vbv_maxrate=50000 / vbv_bufsize=62500 / crf_max=0.0 / nal_hrd=none / ip_ratio=1.40 / pb_ratio=1.30 / aq=2:0.90
Language : English
Default : Yes
Forced : No
Matrix coefficients : BT.709-5, BT.1361, IEC 61966-2-4 709, SMPTE RP177

Audio #1
ID : 2
Format : AC-3
Format/Info : Audio Coding 3
Mode extension : CM (complete main)
Codec ID : A_AC3
Duration : 1h 46mn
Bit rate mode : Constant
Bit rate : 192 Kbps
Channel(s) : 2 channels
Channel positions : Front: L R
Sampling rate : 48.0 KHz
Bit depth : 16 bits
Compression mode : Lossy
Stream size : 146 MiB (2%)
Title : AC3 2.0 @ 192 kbps - Многоголосный, СТС
Language : Russian
Default : Yes
Forced : No

Audio #2
ID : 3
Format : AC-3
Format/Info : Audio Coding 3
Mode extension : CM (complete main)
Codec ID : A_AC3
Duration : 1h 46mn
Bit rate mode : Constant
Bit rate : 192 Kbps
Channel(s) : 2 channels
Channel positions : Front: L R
Sampling rate : 48.0 KHz
Bit depth : 16 bits
Compression mode : Lossy
Stream size : 146 MiB (2%)
Title : AC3 2.0 @ 192 kbps - Одноголосный, Radamant
Language : Russian
Default : No
Forced : No

Audio #3
ID : 4
Format : AC-3
Format/Info : Audio Coding 3
Mode extension : CM (complete main)
Codec ID : A_AC3
Duration : 1h 46mn
Bit rate mode : Constant
Bit rate : 192 Kbps
Channel(s) : 2 channels
Channel positions : Front: L R
Sampling rate : 48.0 KHz
Bit depth : 16 bits
Compression mode : Lossy
Stream size : 146 MiB (2%)
Title : AC3 2.0 @ 192 kbps - Одноголосный, С. Кузнецов
Language : Russian
Default : No
Forced : No

Audio #4
ID : 5
Format : AC-3
Format/Info : Audio Coding 3
Mode extension : CM (complete main)
Codec ID : A_AC3
Duration : 1h 46mn
Bit rate mode : Constant
Bit rate : 192 Kbps
Channel(s) : 2 channels
Channel positions : Front: L R
Sampling rate : 48.0 KHz
Bit depth : 16 bits
Compression mode : Lossy
Stream size : 146 MiB (2%)
Title : AC3 2.0 @ 192 kbps - Одноголосный, Л. Володарский
Language : Russian
Default : No
Forced : No

Audio #5
ID : 6
Format : AC-3
Format/Info : Audio Coding 3
Mode extension : CM (complete main)
Codec ID : A_AC3
Duration : 1h 46mn
Bit rate mode : Constant
Bit rate : 192 Kbps
Channel(s) : 2 channels
Channel positions : Front: L R
Sampling rate : 48.0 KHz
Bit depth : 16 bits
Compression mode : Lossy
Stream size : 146 MiB (2%)
Title : AC3 2.0 @ 192 kbps - Одноголосный, Russianguy27
Language : Russian
Default : No
Forced : No

Audio #6
ID : 7
Format : AC-3
Format/Info : Audio Coding 3
Mode extension : CM (complete main)
Codec ID : A_AC3
Duration : 1h 46mn
Bit rate mode : Constant
Bit rate : 640 Kbps
Channel(s) : 6 channels
Channel positions : Front: L C R, Side: L R, LFE
Sampling rate : 48.0 KHz
Bit depth : 16 bits
Compression mode : Lossy
Stream size : 487 MiB (7%)
Title : AC3 5.1 @ 640 kbps
Language : English
Default : No
Forced : No

Text
ID : 8
Format : UTF-8
Codec ID : S_TEXT/UTF8
Codec ID/Info : UTF-8 Plain Text
Language : English
Default : No
Forced : No

Menu
00:00:00.000 : en:00:00:00.000
00:10:00.600 : en:00:10:00.600
00:20:00.658 : en:00:20:00.658
00:30:01.383 : en:00:30:01.383
00:40:02.609 : en:00:40:02.609
00:50:02.416 : en:00:50:02.416
01:00:03.767 : en:01:00:03.767
01:10:04.117 : en:01:10:04.117
01:20:04.383 : en:01:20:04.383
01:30:04.733 : en:01:30:04.733
01:40:06.209 : en:01:40:06.209
x264 [info]: frame I:1140 Avg QP:15.70 size: 106298
x264 [info]: frame P:29431 Avg QP:16.82 size: 56150
x264 [info]: frame B:122538 Avg QP:19.12 size: 32011

Боцман
Аватара пользователя
Korsar
Заслуженный Корсар-Вип+
 
 

Награды: 32
За помощь проекту (2) Лучший по количеству кубков (2) За отличные раздачи и качество (13) За подробное оформление раздач (1) За отличные комментарии (1) Верный Сид (11) За участие в конкурсах/играх (2)
  • Торрент
Для скачивания торрента необходимо зарегистрироваться или войти на трекер.

Сообщение kwazar312 » 30 июл 2018, 20:24

Супербестселлер видеосалонов конца 80-х!
Фильм отличный - всем смотреть обязательно. Главные герои в ходе фильма меняются в лучшую сторону: Подросток взрослеет, обретая навыки борца с вампирами, Старикашка-неудачник превращается в матёрого киллера, способного замочить кого угодно (оборотня, вампира, просто какого-то *удака) подручными способами и не меняя выражения лица, Подруга Подростка теряет, наконец, невинность.Удивляет, однако, подвал вампирского дома - это просто Эрмитаж! Но в конце фильма главные герои превратили его в Сталинград. Били и крушили всё, что билось и ломалось. Включая стены из камня. Нечисть горела зелёным пламенем и взрывалась как армейский взрывпакет.
Про нечисть. Сделана отлично: все мерзские, уродливые, гадкие. Никаких толерантных соплей по поводу терпимости в отношении компонентов пищевой цепочки. Поэтому их не жалко.
Уважаемый Korsar,большое спасибо за хороший фильм.Удачи ВАМ!
Аватара пользователя
kwazar312
Заслуженный Корсар-Вип
 
 

Награды: 60
За помощь проекту (6) Лучший по количеству кубков (15) За отличные комментарии (10) Верный Сид (24) За участие в конкурсах/играх (5)


Вернуться в Зарубежное кино (1981-1990 / HD Video)



Uptime по данным Ping-Admin.Ru - сервиса мониторинга доступности сайтов
Рейтинг@Mail.ru