logo
Международный русскоязычный
торрент-трекер
Menu
Doublon
Поделиться с друзьями: 
Голосуй за Корсар и получи 500 дублонов
Рейтинг торрент трекеров - UpTracker.ru

Next. Следующий / Некст. Следующий; Next-1 (4 серии), NEXT-2 (12 серий), NEXT-3 (16 серий). (2001-2003, комедия, драма, детектив, DVDRip)

Сообщение Korsar » 17 мар 2017, 10:10

Next. Следующий

Жанр: комедия, драма, криминал
Год выпуска: 2001
Продолжительность: ~ 48 мин х 32

Режиссер: Олег Фомин
В ролях: Александр Абдулов, Александр Лойе, Нина Усатова, Владимир Епископосян

Описание
Next
Лавр — вор в законе, авторитет «старых понятий», король преступного мира. Он не может иметь семью и детей. Лавр так бы и не узнал ничего о своем сыне, если бы не экзамены, на которых Федечку «завалили». Федору светит армия. И чтобы спасти племянника, его боевая тетя решает напомнить Лавру о его отцовском долге.

Next - 2
Криминальный авторитет Лавр окончательно отошел от преступных дел и живет вполне мирной жизнью. Но перед ним опять встает выбор - либо продолжить мирное существование, либо вспомнить о своей "авторитетной" профессии. Чтобы помочь беззащитному мальчишке Лавру нужно опять стать королем преступного мира.

Next-3
Лавр (Александр Абдулов) решает распрощаться с депутатским креслом и начинает приготовления к собственной свадьбе. Его невеста Ольга Кирсанова (Екатерина Волкова) ставит только одно условие: жених не должен ни на минуту опоздать в ЗАГС. Вроде бы пустяк, но проблемы, которые обрушиваются на Лавра накануне бракосочетания, могут изменить ощущение времени у любого нормального человека...



Качество видео: DVDRip
Формат видео: AVI

Видео: 672x384 (1.75:1), 23.976 fps, XviD build 65 ~1038 kbps avg, 0.17 bit/pixel
Аудио: 48 kHz, MPEG Layer 3, 2 ch, ~128.00 kbps avg

General
Complete name : D:\next.s1.e1.2001.dvdrip.410mb.by.riperrr.avi
Format : AVI
Format/Info : Audio Video Interleave
File size : 410 MiB
Duration : 48mn 43s
Overall bit rate : 1 176 Kbps
Movie name : next.s1.e1.2001.dvdrip.410mb.by.riperrr
Writing application : VirtualDubMod 1.5.10.3 | http://www.virtualdub-fr.org || (build 2550/release)
Copyright : riperrr [RG Allfilms rutracker.org]

Video
ID : 0
Format : MPEG-4 Visual
Format profile : Advanced Simple@L5
Format settings, BVOP : 1
Format settings, QPel : No
Format settings, GMC : No warppoints
Format settings, Matrix : Custom
Codec ID : XVID
Codec ID/Hint : XviD
Duration : 48mn 43s
Bit rate : 1 038 Kbps
Width : 672 pixels
Height : 384 pixels
Display aspect ratio : 16:9
Frame rate : 23.976 fps
Color space : YUV
Chroma subsampling : 4:2:0
Bit depth : 8 bits
Scan type : Progressive
Compression mode : Lossy
Bits/(Pixel*Frame) : 0.168
Stream size : 362 MiB (88%)
Writing library : XviD 65

Audio
ID : 1
Format : MPEG Audio
Format version : Version 1
Format profile : Layer 3
Codec ID : 55
Codec ID/Hint : MP3
Duration : 48mn 43s
Bit rate mode : Constant
Bit rate : 128 Kbps
Channel(s) : 2 channels
Sampling rate : 48.0 KHz
Compression mode : Lossy
Stream size : 44.6 MiB (11%)
Alignment : Aligned on interleaves
Interleave, duration : 42 ms (1.00 video frame)
Interleave, preload duration : 504 ms
Writing library : LAME3.98r
Encoding settings : -m s -V 4 -q 0 -lowpass 17 -b 128
КУБКИ

СТАЖ

МЕДАЛИ
Награды:8

Лучший по количеству кубков (1) За отличные раздачи и качество (2) За отличные комментарии (2) Почётный форумчанин (1) Верный Сид (2)

Аватара пользователя
СССР
Korsar
Заслуженный Корсар-Вип+
  • Торрент
Для скачивания торрента необходимо зарегистрироваться или войти на трекер.

Вернуться в Отечественные сериалы



Uptime по данным Ping-Admin.Ru - сервиса мониторинга доступности сайтов
Рейтинг@Mail.ru