logo
Международный русскоязычный
торрент-трекер
Menu

Doublon
Поделиться с друзьями: 
Голосуй за Корсар и получи 150 дублонов
Рейтинг торрент трекеров - UpTracker.ru

Невидимый фронт / Спецслужбы КГБ и ГРУ в Афганистане / серии: 1-28 из 28 (2007-2008, документальный, спецслужбы, война, история, SATRip)

Сообщение inet2663 » 07 янв 2018, 09:20

Название: Невидимый фронт (Спецслужбы КГБ и ГРУ в Афганистане)
Год выпуска: 2007-2008
Жанр: документальный, спецслужбы, война, история
Режиссёр: Афанасий Котов

О фильме: Сколько тайн у современной истории? Миллионы. Малую толику из них мы раскроем в фильмах «Невидимый фронт». Проект создан при содействии специальных служб Беларуси и России, используются уникальные сведения архивов секретных материалов СССР, в основном хранящихся в России, записаны интервью легендарных личностей и авторитетных экспертов. Каждый фильм содержит уникальную информацию, редкие, а то и эксклюзивные видеокадры. Все герои фильмов связаны невидимыми узами с государством и ведут невидимую борьбу на невидимом фронте. Весь цикл разбит на тематические группы «Битва разведок», «Спецслужбы КГБ и ГРУ в Афганистане»; «Линия войны», «Партизанский фронт»; «Рожденные революцией», «Холодная война». Сериал является крупнейшим систематизированным обобщением уникальных исторических материалов в области разведки и военных операций. Цикл фильмов охватывает широкий диапазон времени - от террористов и партизан XIX века до современных антитеррористических формирований. Герои фильма - люди, чья важная и зачастую очень опасная деятельность по понятным причинам остается «в тени», - бойцы «невидимого фронта»: от агентов царской охранки до разведчиков ХХI века. Документальный цикл «Спецслужбы КГБ и ГРУ в Афганистане» расскажет о почти неизвестных военных операциях войны в Афганистане. Наряду с редчайшей хроникой вы увидите ветеранов той войны, легендарных командиров и разведчиков, спецов ГРУ и военной разведки. Работа спецподразделений «Зенит» и «Гром» в Афганистане, очевидцы, участники, командиры. Мусульманский батальон. Штурм дворца Тадж-Бек – правда и подробности до мельчайших деталей. Такие откровения не в стиле западной «демократии». Захват подразделением «Каскад» знаменитой «Тора-Бора», так и не покорившейся американцам. Они создали «Вымпел», но название своего подразделения, узнали намного позже. Ю. И. Дроздов – резидент в Китае и США, начальник нелегальной разведки СССР, генерал-майор КГБ СССР и многое другое.


Выпущено: Россия, Беларусь
Продолжительность: 28 x ~ 00:13:00

Качество: SATRip
Видео: XviD, ~ 1800 Кбит/с, 704x528
Аудио: AC3, 2 ch, 192 Кбит/с

01. Трио-1
02. Трио-2
03. Штурм дворца Амина. Связь
04. Штурм дворца Амина. Телевидение
05. Штурм дворца Амина. Мусульманский батальон
06. 1980
07. 1985
08. 1987. Операция «Магистраль»
09. 1988. Дороги
10. 1988. Ахмад Шах Масуд
11. 1989. Домой
12. «Каскад». Кандагар
13. Нур Мохаммад Тараки
14. Тора-Бора
15. Тора-Бора. Американцы
16. Информация
17. Охота за ПЗРК «Стингер»
18. История создания спецподразделений
19. Курсы усовершенствования офицерского состава КГБ СССР
20. Военная разведка
21. Вымпел
22. Спецназ
23. Спецназ. КУОС
24. Спецназ ГРУ-1
25. Спецназ ГРУ-2
26. Мусульманский батальон
27. Владимир Хромов
28. Ветераны спецназа

Format : AVI
Format/Info : Audio Video Interleave
File size : 191 MiB
Duration : 13 min 18 s
Overall bit rate : 2 004 kb/s
Writing application : VirtualDubModRus 1.5.10.2 (build 2542/release)
Writing library : VirtualDubMod build 2542/release

Video
ID : 0
Format : MPEG-4 Visual
Format profile : Advanced Simple@L5
Format settings, BVOP : 2
Format settings, QPel : No
Format settings, GMC : No warppoints
Format settings, Matrix : Default (MPEG)
Codec ID : XVID
Codec ID/Hint : XviD
Duration : 13 min 18 s
Bit rate : 1 802 kb/s
Width : 704 pixels
Height : 528 pixels
Display aspect ratio : 4:3
Frame rate : 25.000 FPS
Color space : YUV
Chroma subsampling : 4:2:0
Bit depth : 8 bits
Scan type : Progressive
Compression mode : Lossy
Bits/(Pixel*Frame) : 0.194
Stream size : 171 MiB (90%)
Writing library : XviD 73

Audio
ID : 1
Format : AC-3
Format/Info : Audio Coding 3
Mode extension : CM (complete main)
Format settings, Endianness : Big
Codec ID : 2000
Duration : 13 min 18 s
Bit rate mode : Constant
Bit rate : 192 kb/s
Channel(s) : 2 channels
Channel positions : Front: L R
Sampling rate : 48.0 kHz
Frame rate : 31.250 FPS (1536 spf)
Bit depth : 16 bits
Compression mode : Lossy
Delay relative to video : 24 ms
Stream size : 18.3 MiB (10%)
Alignment : Split accross interleaves
Interleave, duration : 40 ms (1.00 video frame)
Interleave, preload duratio : 500 ms

Аватара пользователя
inet2663
Опытный Релизёр-Корсар
 
 

Награды: 34
За помощь проекту (5) Лучший по количеству кубков (4) За отличные раздачи и качество (10) За подробное оформление раздач (1) Верный Сид (11)
  • Торрент
Для скачивания торрента необходимо зарегистрироваться или войти на трекер.

Сообщение filbi1976 » 07 янв 2018, 09:36

В названии скобок быть не должно, всё через косой слеш.

За раздачу спасибо, интересная тема.
Аватара пользователя
filbi1976
Администратор-Корсар
 
 

Награды: 47
За помощь проекту (1) За отличные раздачи и качество (33) Верный Сид (10) За участие в конкурсах/играх (1)

Сообщение Бользен » 09 янв 2018, 09:34

Благодарю.
Если есть возможность, выложите и другие фильмы из этой же серии ("НФ"), посвящённые другим периодам в истории страны.
Буду Вам очень признателен :good: .
Аватара пользователя
Бользен
Уважаемый Корсар
 
 

Награды: 5
Лучший по количеству кубков (1) За отличные комментарии (1) Верный Сид (3)


Вернуться в Военное дело



Uptime по данным Ping-Admin.Ru - сервиса мониторинга доступности сайтов
Рейтинг@Mail.ru