logo
Международный русскоязычный
торрент-трекер
Menu
Поделиться с друзьями: 
Голосуй за Корсар и получай 1000 дублонов каждый день
Рейтинг торрент трекеров - UpTracker.ru

Неупиваемая Чаша (2010, Документальный, православие, DVDRip-AVC) - KORSAR

Сообщение Sanechek » 17 янв 2017, 19:18

Название: Неупиваемая Чаша
Год выхода: 2010
Жанр: Документальный, православие

О фильме: В Покровском храме обители пред Чудотворным образом Божией Матери "Неупиваемая Чаша" день и ночь неугасимо мерцает лампада, как символ тех молитв, которые во всякое время из разных мест обращены к Первообразной, пред Пречистым ликом Которой изливаются они о спасении, исправлении, исцелении, благодатной помощи пьяниц, наркоманов, курящих, блудников, всех страждущих недугами телесными и душевными. Помогает Всемилостивая Заступница всем, кто с Верою, Надеждою и Любовию приходит просить помощи у Неё пред Чудотворным Её образом "Неупиваемая Чаша"... На протяжении многих лет образ Божией Матери «Неупиваемая Чаша», находящийся в Высоцком монастыре, достойно почитается православным народом, как чудотворный. В конце ХХ века Высоцкий монастырь стал местом возрождения почитания дотоле почти забытого образа Богородицы, который в наши дни приобрел всероссийское почитание и стал известен во всем православном мире.

Выпущено: Россия, Серпуховский Высоцкий Мужской Монастырь
Продолжительность: 01:00:23
Перевод: не требуется

Файл
Кодек: х264
Качество: DVDRip-AVC
Видео: MPEG-4 AVC, 716x572@764x572, 25 fps, 2200 Кбит/с
Звук: AC3, 2 ch, 256 Кбит/с

x264 [info]: frame I:479 Avg QP:17.57 size: 72017
x264 [info]: frame P:20001 Avg QP:20.24 size: 26287
x264 [info]: frame B:70102 Avg QP:21.55 size: 6236
==================================================================================
Общее
Уникальный идентификатор : 196401143740527168452987841918847285126 (0x93C17C0099FC80119852FA0C3FB1F786)
Полное имя : D:\Неупиваемая Чаша (2010).mkv
Формат : Matroska
Версия формата : Version 2
Размер файла : 1,04 Гбайт
Продолжительность : 1 ч. 0 м.
Общий поток : 2460 Кбит/сек
Дата кодирования : UTC 2017-01-16 18:47:32
Программа кодирования : mkvmerge v7.8.0 ('River Man') 32bit built on Apr 3 2015 12:11:22
Библиотека кодирования : libebml v1.3.1 + libmatroska v1.4.2

Видео
Идентификатор : 1
Формат : AVC
Формат/Информация : Advanced Video Codec
Профиль формата : High@L4.1
Параметр CABAC формата : Да
Параметр ReFrames формата : 12 кадров
Идентификатор кодека : V_MPEG4/ISO/AVC
Продолжительность : 1 ч. 0 м.
Битрейт : 2200 Кбит/сек
Ширина : 716 пикселей
Высота : 572 пикселя
Соотношение сторон : 4:3
Соотношение сторон в оригинале : 4:3
Режим частоты кадров : Постоянный
Частота кадров : 25,000 кадров/сек
Цветовое пространство : YUV
Субдискретизация насыщенности : 4:2:0
Битовая глубина : 8 бит
Тип развёртки : Прогрессивная
Бит/(Пиксели*Кадры) : 0.215
Размер потока : 931 Мбайт (88%)
Библиотека кодирования : x264 core 146 r2538 121396c
Настройки программы : cabac=1 / ref=12 / deblock=1:-2:-2 / analyse=0x3:0x133 / me=umh / subme=10 / psy=1 / psy_rd=1.05:0.10 / mixed_ref=1 / me_range=32 / chroma_me=1 / trellis=2 / 8x8dct=1 / cqm=0 / deadzone=21,11 / fast_pskip=0 / chroma_qp_offset=-3 / threads=3 / lookahead_threads=1 / sliced_threads=0 / nr=0 / decimate=0 / interlaced=0 / bluray_compat=0 / constrained_intra=0 / bframes=16 / b_pyramid=2 / b_adapt=2 / b_bias=0 / direct=3 / weightb=1 / open_gop=0 / weightp=2 / keyint=250 / keyint_min=25 / scenecut=40 / intra_refresh=0 / rc=2pass / mbtree=0 / bitrate=2200 / ratetol=1.0 / qcomp=0.63 / qpmin=0 / qpmax=39 / qpstep=4 / cplxblur=20.0 / qblur=0.5 / ip_ratio=1.25 / pb_ratio=1.30 / aq=1:1.00
Язык : Russian
Default : Да
Forced : Нет
Цветовой диапазон : Limited
Основные цвета : BT.601 PAL
Характеристики трансфера : BT.470 System B, BT.470 System G
Коэффициенты матрицы : BT.601

Аудио
Идентификатор : 2
Формат : AC-3
Формат/Информация : Audio Coding 3
Расширение режима : CM (complete main)
Параметр Endianness формата : Big
Идентификатор кодека : A_AC3
Продолжительность : 1 ч. 0 м.
Вид битрейта : Постоянный
Битрейт : 256 Кбит/сек
Каналы : 2 канала
Расположение каналов : Front: L R
Частота : 48,0 КГц
Частота кадров : 31,250 кадров/сек (1536 spf)
Битовая глубина : 16 бит
Метод сжатия : С потерями
Размер потока : 111 Мбайт (10%)
Язык : Russian
Default : Да
Forced : Нет
КУБКИ

СТАЖ

МЕДАЛИ
Награды:71

Пожизненный VIP+ (1) За активную помощь проекту VIP (4) Лучший по количеству кубков (9) За отличные раздачи и качество (24) За подробное оформление раздач (2) За отличные комментарии (7) Почётный форумчанин (1) Верный Сид (22)

Аватара пользователя
СССР
Sanechek
Главный Модератор-Корсар
Раздачи группы KORSAR доступны раздавшим не менее 15 гиг и зарегистрированным от 14 дней, а перезаливать разрешено спустя 14 дней после публикации и с обязательным добавлением банера!!!
  • Торрент
Для скачивания торрента необходимо зарегистрироваться или войти на трекер.

Сообщение kwazar312 » 17 янв 2017, 20:19

Уважаемый Sanechek,большое спасибо за раздачу.Хороший познавательный фильм.
КУБКИ

СТАЖ

МЕДАЛИ
Награды:149

Пожизненный VIP+ (4) За активную помощь проекту VIP (14) Лучший по количеству кубков (46) За отличные раздачи и качество (3) За отличные комментарии (26) Почётный форумчанин (1) Верный Сид (49) За участие в конкурсах/играх (6)

Аватара пользователя
kwazar312
Заслуженный Корсар-VIP+

Сообщение Sanechek » 17 янв 2017, 20:21

Пожалуйста! :hi:
КУБКИ

СТАЖ

МЕДАЛИ
Награды:71

Пожизненный VIP+ (1) За активную помощь проекту VIP (4) Лучший по количеству кубков (9) За отличные раздачи и качество (24) За подробное оформление раздач (2) За отличные комментарии (7) Почётный форумчанин (1) Верный Сид (22)

Аватара пользователя
СССР
Sanechek
Главный Модератор-Корсар

Сообщение filbi1976 » 18 янв 2017, 10:21

Саша, спасибо! :hi:
The Show Must Go On
Посмотреть товар в профиле пользователя

Нажмите на изображение, чтобы увидеть в полный размер  
1 шт.
Нажмите на изображение, чтобы увидеть в полный размер  
1 шт.
Нажмите на изображение, чтобы увидеть в полный размер  
1 шт.
Нажмите на изображение, чтобы увидеть в полный размер  
1 шт.
Нажмите на изображение, чтобы увидеть в полный размер  
1 шт.
Нажмите на изображение, чтобы увидеть в полный размер  
1 шт.
Нажмите на изображение, чтобы увидеть в полный размер  
1 шт.
Нажмите на изображение, чтобы увидеть в полный размер  
1 шт.
Нажмите на изображение, чтобы увидеть в полный размер  
1 шт.
Нажмите на изображение, чтобы увидеть в полный размер  
1 шт.
Нажмите на изображение, чтобы увидеть в полный размер  
1 шт.
Нажмите на изображение, чтобы увидеть в полный размер  
1 шт.
Нажмите на изображение, чтобы увидеть в полный размер  
1 шт.
Нажмите на изображение, чтобы увидеть в полный размер  
1 шт.
Нажмите на изображение, чтобы увидеть в полный размер  
1 шт.
КУБКИ

СТАЖ

МЕДАЛИ
Награды:175

За активную помощь проекту VIP (5) Лучший по количеству кубков (1) За отличные раздачи и качество (115) За подробное оформление раздач (4) За отличные комментарии (8) Почётный форумчанин (3) Верный Сид (35) За участие в конкурсах/играх (2) 3 место в конкурсах/играх (1)

Аватара пользователя
Тортуга
filbi1976
Администратор-Корсар


Вернуться в Христианство



Рейтинг@Mail.ru