logo
Международный русскоязычный
торрент-трекер
Menu
Поделиться с друзьями: 
Голосуй за Корсар и получи 500 дублонов
Рейтинг торрент трекеров - UpTracker.ru

Неизбранные дороги / The Roads Not Taken (2020, Драма, WEB-DL 1080p) | iTunes

Сообщение al1ksandr » 28 апр 2020, 12:34

Название: Неизбранные дороги
Оригинальное название: The Roads Not Taken
Год выхода: 2020
Жанр: Драма
Режиссер: Салли Поттер
В ролях: Хавьер Бардем, Элль Фэннинг, Сальма Хайек, Бранка Катич, Лора Линни, Дмитрий Андреас, Катя Муллова-Брайнд, Милена Чарнтке, Дебора Уэстон, Аарон Джошуа

О фильме: День, обещавший Лео лишь рутину, становится точкой пересечения множества судеб. Богемная жизнь, непростая карьера музыканта на Манхэттене, безумная любовь, рождение дочери и бегство на греческий остров, полный соблазнов. Сегодня всё это как будто происходит вновь...



Страна: Великобритания, Швеция, США
Студия: Adventure Pictures, BBC Films, British Film Institute
Продолжительность: 01:25:11
Перевод: Дублированный | iTunes

Качество: WEB-DL 1080p
Видео: MPEG-4 AVC, 1920x804, 4582 Kbit/s, 24 fps
Аудио #01: 48 kHz, AC3, 5.1, 384 Kbps | iTunes | RUS |
Аудио #02: 48 kHz, AC3, 5.1, 384 Kbps | Оригинал | ENG |
Субтитры: Русские (Full)


General
Unique ID : 15682947896204996470716456495470020229 (0xBCC6D07953C10CFA2CBF7B5819B0685)
Complete name : E:Video111The.Roads.Not.Taken.2020.WEB-DL.1080p.seleZen.mkv
Format : Matroska
Format version : Version 4
File size : 3.18 GiB
Duration : 1 h 25 min
Overall bit rate : 5 352 kb/s
Movie name : The Roads Not Taken 2020 from селезень
Encoded date : UTC 2020-04-28 05:57:12
Writing application : mkvmerge v40.0.0 ('Old Town Road + Pony') 64-bit
Writing library : libebml v1.3.9 + libmatroska v1.5.2

Video
ID : 1
Format : AVC
Format/Info : Advanced Video Codec
Format profile : High@L4
Format settings : CABAC / 5 Ref Frames
Format settings, CABAC : Yes
Format settings, Reference : 5 frames
Codec ID : V_MPEG4/ISO/AVC
Duration : 1 h 25 min
Bit rate : 4 582 kb/s
Width : 1 920 pixels
Height : 804 pixels
Display aspect ratio : 2.40:1
Frame rate mode : Constant
Frame rate : 24.000 FPS
Color space : YUV
Chroma subsampling : 4:2:0
Bit depth : 8 bits
Scan type : Progressive
Bits/(Pixel*Frame) : 0.124
Stream size : 2.73 GiB (86%)
Language : English
Default : Yes
Forced : No
Color range : Limited
Color primaries : BT.709
Transfer characteristics : BT.709
Matrix coefficients : BT.709

Audio #1
ID : 2
Format : AC-3
Format/Info : Audio Coding 3
Commercial name : Dolby Digital
Codec ID : A_AC3
Duration : 1 h 25 min
Bit rate mode : Constant
Bit rate : 384 kb/s
Channel(s) : 6 channels
Channel layout : L R C LFE Ls Rs
Sampling rate : 48.0 kHz
Frame rate : 31.250 FPS (1536 SPF)
Compression mode : Lossy
Stream size : 234 MiB (7%)
Title : iTunes
Language : Russian
Service kind : Complete Main
Default : Yes
Forced : Yes

Audio #2
ID : 3
Format : AC-3
Format/Info : Audio Coding 3
Commercial name : Dolby Digital
Codec ID : A_AC3
Duration : 1 h 25 min
Bit rate mode : Constant
Bit rate : 384 kb/s
Channel(s) : 6 channels
Channel layout : L R C LFE Ls Rs
Sampling rate : 48.0 kHz
Frame rate : 31.250 FPS (1536 SPF)
Compression mode : Lossy
Stream size : 234 MiB (7%)
Title : Original
Language : English
Service kind : Complete Main
Default : No
Forced : No

Text
ID : 4
Format : UTF-8
Codec ID : S_TEXT/UTF8
Codec ID/Info : UTF-8 Plain Text
Duration : 1 h 23 min
Bit rate : 41 b/s
Count of elements : 777
Stream size : 25.7 KiB (0%)
Title : Full
Language : Russian
Default : No
Forced : No

Menu
00:00:00.000 : en:Глава 1
00:07:15.375 : en:Глава 2
00:12:49.666 : en:Глава 3
00:17:57.166 : en:Глава 4
00:26:09.291 : en:Глава 5
00:33:57.832 : en:Глава 6
00:41:54.082 : en:Глава 7
00:46:39.290 : en:Глава 8
00:55:09.623 : en:Глава 9
01:00:58.956 : en:Глава 10
01:09:28.206 : en:Глава 11
01:13:58.206 : en:Глава 12


Релиз от:
КУБКИ

СТАЖ

МЕДАЛИ
Награды:56

За активную помощь проекту (4) Лучший по количеству кубков (16) За отличные раздачи и качество (13) За подробное оформление раздач (1) За отличные комментарии (15) Почётный форумчанин (3) Верный Сид (1) За участие в конкурсах/играх (2)

Аватара пользователя
СССР
al1ksandr
Главный Модератор-Корсар
  • Торрент
Для скачивания торрента необходимо зарегистрироваться или войти на трекер.

Сообщение poletov » 01 авг 2020, 14:41

Фильм о дорогах жизненного пути,а смотреть можно и особенно для любителей.
КУБКИ

СТАЖ

МЕДАЛИ
Награды:21

За отличные раздачи и качество (1) За отличные комментарии (17) Почётный форумчанин (2) Верный Сид (1)

Аватара пользователя
Russia
poletov
Заслуженный Корсар


Вернуться в Зарубежное кино (2011-2020 / HD Video)



Рейтинг@Mail.ru