logo
Международный русскоязычный
торрент-трекер
Menu

Doublon
Поделиться с друзьями: 
Голосуй за Корсар и получи 150 дублонов
Рейтинг торрент трекеров - UpTracker.ru

Не могу не петь / Cant Help Singing (1944, Мюзикл, вестерн, WEB-DLRip 720p) - KORSAR

Сообщение mzma » 12 фев 2018, 22:59

Название: Не могу не петь
Оригинальное название: Cant Help Singing (Can't Help Singing)
Год выпуска: 1944
Выпущено: США, Universal Pictures
Жанр: Мюзикл, вестерн
Режиссер: Фрэнк Райан
В ролях: Дина Дурбин, Роберт Пейдж, Аким Тамирофф, Дэвид Брюс, Леонид Кински, Джун Винсент, Рэй Коллинз, Эндрю Томбс, Томас Гомес, Клара Блэндик, Олин Ховлин, Джордж Кливлэнд, Энрике Акоста, Эдди Акафф, Ричард Александр, Майкл Ансара, Гертруда Эстор

О фильме: Музыкальная комедия с участием американской певицы и актрисы Дины Дурбин. Вопреки желанию родителей, ее героиня отправляется на Запад в поисках своего возлюбленного кавалерийского офицера. Замечательная музыка Джерома Керна и прекрасно поставленные костюмные сцены середины девятнадцатого века, делают этот фильм незабываемым зрелищем. Красавица Кэролайн профессиональная певица, дочь сенатора Мартина Фроста. Она влюблена в лейтенанта Роберта Лэтхэма, возглавившего первый обоз с золотом из Калифорнии. Девушка горит желанием поскорее выйти замуж, но её отец против этого брака и чтобы чувство дочери остыло, высылает её возлюбленного обратно в Калифорнию. Девушка не стала мириться с произволом родителя и бежит в Питсбург…



Продолжительность: 01:30:27
Перевод: Профессиональный многоголосый, авторский
Субтитры: Английские, французские, португальские
Навигация по главам: Есть

Качество: WEB-DLRip 720p
Видео: MPEG-4 AVC, 8191 Кбит/сек, 960x720, 23,976 кадра/сек
Аудио #1: AC3, 2 ch, 192 Кбит/сек | Русский, профессиональный (многоголосый закадровый) ГТРК "Культура"
Аудио #2: AC3, 2 ch, 192 Кбит/сек | Русский, авторский (одноголосый закадровый) Леонид Машинский
Аудио #3: EAC3, 2 ch, 224 Кбит/сек | Английский, оригинал


x264 [info]: frame I:723 Avg QP:18.24 size:143286
x264 [info]: frame P:29044 Avg QP:20.04 size: 76946
x264 [info]: frame B:100348 Avg QP:22.00 size: 32066
-----------------------------------------------------
Общее
Уникальный идентификатор : 225614056168740295356228806452464590945 (0xA9BBAFC94717CA28AC79EC418EE82061)
Полное имя : Не.могу.не.петь.1964.WEB-DLRip.720p.KORSAR.mkv
Формат : Matroska
Версия формата : Version 2
Размер файла : 5,56 Гбайт
Продолжительность : 1 ч. 30 м.
Общий поток : 8801 Кбит/сек
Дата кодирования : UTC 2018-02-12 17:38:41
Программа кодирования : mkvmerge v5.8.0 ('No Sleep / Pillow') built on Sep 2 2012 15:37:04
Библиотека кодирования : libebml v1.2.3 + libmatroska v1.3.0

Видео
Идентификатор : 1
Формат : AVC
Формат/Информация : Advanced Video Codec
Профиль формата : High@L4.1
Настройки формата : CABAC / 12 Ref Frames
Параметр CABAC формата : Да
Параметр RefFrames формата : 12 кадров
Идентификатор кодека : V_MPEG4/ISO/AVC
Продолжительность : 1 ч. 30 м.
Битрейт : 8191 Кбит/сек
Ширина : 960 пикселей
Высота : 720 пикселей
Соотношение сторон : 4:3
Режим частоты кадров : Постоянный
Частота кадров : 23,976 (24000/1001) кадра/сек
Цветовое пространство : YUV
Субдискретизация насыщенности : 4:2:0
Битовая глубина : 8 бит
Тип развёртки : Прогрессивная
Бит/(Пиксели*Кадры) : 0.494
Размер потока : 5,07 Гбайт (91%)
Заголовок : RIP | MZMA
Библиотека кодирования : x264 core 152 r2851kMod ba24899
Настройки программы : cabac=1 / ref=12 / deblock=1:-1:-1 / analyse=0x3:0x113 / me=umh / subme=11 / psy=1 / fade_compensate=0.00 / psy_rd=0.90:0.05 / mixed_ref=1 / me_range=48 / chroma_me=1 / trellis=2 / 8x8dct=1 / cqm=0 / deadzone=21,11 / fast_pskip=0 / chroma_qp_offset=-3 / threads=6 / lookahead_threads=1 / sliced_threads=0 / nr=0 / decimate=0 / interlaced=0 / bluray_compat=0 / constrained_intra=0 / bframes=16 / b_pyramid=2 / b_adapt=2 / b_bias=0 / direct=3 / weightb=1 / open_gop=0 / weightp=2 / keyint=240 / keyint_min=23 / scenecut=40 / intra_refresh=0 / rc_lookahead=40 / rc=2pass / mbtree=0 / bitrate=8191 / ratetol=1.0 / qcomp=0.60 / qpmin=0 / qpmax=69 / qpstep=4 / cplxblur=20.0 / qblur=0.5 / vbv_maxrate=50000 / vbv_bufsize=62500 / nal_hrd=none / filler=0 / ip_ratio=1.25 / pb_ratio=1.30 / aq=1:0.70
Язык : English
Default : Да
Forced : Нет
Цветовой диапазон : Limited
Основные цвета : BT.709
Характеристики трансфера : BT.709
Коэффициенты матрицы : BT.709

Аудио #1
Идентификатор : 2
Формат : AC-3
Формат/Информация : Audio Coding 3
Идентификатор кодека : A_AC3
Продолжительность : 1 ч. 30 м.
Вид битрейта : Постоянный
Битрейт : 192 Кбит/сек
Каналы : 2 канала
Расположение каналов : Front: L R
Частота : 48,0 КГц
Частота кадров : 31,250 кадров/сек (1536 SPF)
Битовая глубина : 16 бит
Метод сжатия : С потерями
Размер потока : 124 Мбайт (2%)
Заголовок : MVO | Культура
Язык : Russian
По умолчанию : Да
Принудительно : Нет

Аудио #2
Идентификатор : 3
Формат : AC-3
Формат/Информация : Audio Coding 3
Идентификатор кодека : A_AC3
Продолжительность : 1 ч. 30 м.
Вид битрейта : Постоянный
Битрейт : 192 Кбит/сек
Каналы : 2 канала
Расположение каналов : Front: L R
Частота : 48,0 КГц
Частота кадров : 31,250 кадров/сек (1536 SPF)
Битовая глубина : 16 бит
Метод сжатия : С потерями
Размер потока : 124 Мбайт (2%)
Заголовок : AVO | Л. Машинский
Язык : Russian
По умолчанию : Нет
Принудительно : Нет

Аудио #3
Идентификатор : 4
Формат : E-AC-3
Формат/Информация : Enhanced Audio Coding 3
Идентификатор кодека : A_EAC3
Продолжительность : 1 ч. 30 м.
Вид битрейта : Постоянный
Битрейт : 224 Кбит/сек
Каналы : 2 канала
Расположение каналов : Front: L R
Частота : 48,0 КГц
Частота кадров : 187,500 кадров/сек (256 SPF)
Метод сжатия : С потерями
Размер потока : 145 Мбайт (3%)
Заголовок : Original
Язык : English
По умолчанию : Нет
Принудительно : Нет

Текст #1
Идентификатор : 5
Формат : UTF-8
Идентификатор кодека : S_TEXT/UTF8
Идентификатор кодека/Информация : UTF-8 Plain Text
Язык : English
По умолчанию : Нет
Принудительно : Нет

Текст #2
Идентификатор : 6
Формат : UTF-8
Идентификатор кодека : S_TEXT/UTF8
Идентификатор кодека/Информация : UTF-8 Plain Text
Заголовок : SDH
Язык : English
По умолчанию : Нет
Принудительно : Нет

Текст #3
Идентификатор : 7
Формат : UTF-8
Идентификатор кодека : S_TEXT/UTF8
Идентификатор кодека/Информация : UTF-8 Plain Text
Язык : French
По умолчанию : Нет
Принудительно : Нет

Текст #4
Идентификатор : 8
Формат : UTF-8
Идентификатор кодека : S_TEXT/UTF8
Идентификатор кодека/Информация : UTF-8 Plain Text
Язык : Portuguese
По умолчанию : Нет
Принудительно : Нет

Меню
00:00:00.000 : en:01. First Gold (Main Titles)
00:04:57.881 : en:02. Can't Help Singing
00:11:48.124 : en:03. Understanding Father
00:17:24.585 : en:04. The Prince and Koppa
00:24:28.217 : en:05. Elbow Room
00:30:36.501 : en:06. Bathtub Ballad
00:34:58.054 : en:07. Hoodwinked
00:41:54.101 : en:08. A Stake in California
00:45:30.311 : en:09. Gettin' Hitched
00:52:30.022 : en:10. Close Call
00:56:53.368 : en:11. Any Moment Now
01:00:47.519 : en:12. Something's Come Over Me
01:06:28.026 : en:13. Swing Your Sweetheart
01:10:41.863 : en:14. More and More
01:14:49.276 : en:15. Californ-i-ay
01:18:10.227 : en:16. Loved and Lost
01:23:58.116 : en:17. Nobody But You
01:30:09.988 : en:18. End Titles




На рутор не перезаливать!!!
Аватара пользователя
mzma
Главный Модератор-Корсар
 
 

Награды: 68
За помощь проекту (3) Лучший по количеству кубков (6) За отличные раздачи и качество (37) За подробное оформление раздач (10) Верный Сид (10)
Раздачи группы KORSAR разрешено перезаливать спустя сутки после публикации
  • Торрент
Для скачивания торрента необходимо зарегистрироваться или войти на трекер.

Сообщение Valet » 13 фев 2018, 18:37

Вся музыка к фильму в целом и одна из песен в частности были номинированы на Оскар.
Этот фильм был снят в цвет, поэтому стоит отдельно отметить костюмеров и декораторов, всё выглядит очень ярко и красиво.
Аватара пользователя
Valet
Опытный Релизёр-Корсар
 
 

Награды: 14
Лучший по количеству кубков (1) За отличные раздачи и качество (7) За отличные комментарии (3)


Вернуться в Классика зарубежного кино (фильмы до 1980 года / HD Video)



Uptime по данным Ping-Admin.Ru - сервиса мониторинга доступности сайтов
Рейтинг@Mail.ru