logo
Международный русскоязычный
торрент-трекер
Menu

Doublon
Поделиться с друзьями: 
Голосуй за Корсар и получи 400 дублонов
Рейтинг торрент трекеров - UpTracker.ru

National Geographic: Планета птиц / Planet of the Birds (2018, Документальный, природа, флора, фауна, HDTV 1080i)

Сообщение Gogen » 10 май 2018, 22:44

Название: Планета птиц
Оригинальное название: Planet of the Birds
Год выхода: 2018
Жанр: Документальный, природа, флора, фауна
Режиссер: Лесли Шверин

О фильме: Птицы - это единственные представители флоры, которых можно найти на всех семи континентах. Есть птицы, которые убивают, птицы, которые прыгают, танцуют, обладают пронзительным криком и умеют дрожать.

Страна: Германия
Студия: National Geographic Channels
Продолжительность: 00:44:00
Перевод: Профессиональный одноголосый закадровый

Кодек: MPEG-4 AVC
Качество: HDTV 1080i
Видео: 1920x1080 (16:9), 25 fps, AVC (x264), High@L4, 6809 kbps, 25fps, 0.131 bit/pixel
Аудио 1: Русский MP2 Dolby Digital, 2/0 (L,R) ch, ~192.00 kbps avg
Аудио 2: Английский MP2 Dolby Digital, 2/0 (L,R) ch, ~192.00 kbps avg

Семпл

Complete name : F:\Наладки\Планета птиц.ts
Format : MPEG-TS
File size : 2.33 GiB
Duration : 43 min 59 s
Overall bit rate mode : Variable
Overall bit rate : 7 571 kb/s

Video
ID : 201 (0xC9)
Menu ID : 20101 (0x4E85)
Format : AVC
Format/Info : Advanced Video Codec
Format profile : High@L4
Format settings : CABAC / 4 Ref Frames
Format settings, CABAC : Yes
Format settings, ReFrames : 4 frames
Codec ID : 27
Duration : 43 min 59 s
Bit rate : 6 809 kb/s
Width : 1 920 pixels
Height : 1 080 pixels
Display aspect ratio : 16:9
Frame rate : 25.000 FPS
Standard : Component
Color space : YUV
Chroma subsampling : 4:2:0
Bit depth : 8 bits
Scan type : Interlaced
Scan type, store method : Separated fields
Scan order : Top Field First
Bits/(Pixel*Frame) : 0.131
Stream size : 2.09 GiB (90%)
Color range : Limited
Color primaries : BT.709
Transfer characteristics : BT.709
Matrix coefficients : BT.709

Audio #1
ID : 301 (0x12D)
Menu ID : 20101 (0x4E85)
Format : MPEG Audio
Format version : Version 1
Format profile : Layer 2
Codec ID : 3
Duration : 43 min 59 s
Bit rate mode : Constant
Bit rate : 192 kb/s
Channel(s) : 2 channels
Sampling rate : 48.0 kHz
Frame rate : 41.667 FPS (1152 SPF)
Compression mode : Lossy
Delay relative to video : -120 ms
Stream size : 60.4 MiB (3%)
Language : Russian

Audio #2
ID : 302 (0x12E)
Menu ID : 20101 (0x4E85)
Format : MPEG Audio
Format version : Version 1
Format profile : Layer 2
Codec ID : 3
Duration : 43 min 59 s
Bit rate mode : Constant
Bit rate : 192 kb/s
Channel(s) : 2 channels
Sampling rate : 48.0 kHz
Frame rate : 41.667 FPS (1152 SPF)
Compression mode : Lossy
Delay relative to video : -120 ms
Stream size : 60.4 MiB (3%)
Language : English
КУБКИ

СТАЖ

МЕДАЛИ
Награды:42

Лучший по количеству кубков (14) За отличные раздачи и качество (21) За подробное оформление раздач (1) Верный Сид (2)

Аватара пользователя
Russia
Gogen
Заслуженный Релизёр-Корсар
  • Торрент
Для скачивания торрента необходимо зарегистрироваться или войти на трекер.

Вернуться в BBC, Discovery, National Geographic (HD Video)



Uptime по данным Ping-Admin.Ru - сервиса мониторинга доступности сайтов
Рейтинг@Mail.ru Голосуйте за наш сайт в каталоге Rubo.Ru