logo
Международный русскоязычный
торрент-трекер
Menu
Doublon
Поделиться с друзьями: 
Голосуй за Корсар и получи 500 дублонов
Рейтинг торрент трекеров - UpTracker.ru

Наследники Рабурдэна (1962, Телеспектакль, комедия, DVB)| Театр сатиры

Сообщение mister Pitkin » 13 фев 2017, 11:27

Наследники Рабурдэна

Название театра: Театр сатиры
Жанр: комедия
Год выпуска: 1962
Продолжительность: 01:29:23

Режиссёр: Валентин Плучек, Евгений Весник
В ролях: Евгений Весник, Нина Архипова, Анатолий Папанов, Ольга Аросева, Валентина Токарская, Георгий Менглет, Александр Белявский, Алексей Овечкин, Галина Степанова (II), Андрей Крюков

Описание: Телеспектакль Театра сатиры по одноименной комедии Эмиля Золя.
Время действия – 1870-е годы, Франция.
Буржуа Рабурден промотал свое состояние, а родственники, не зная этого, делят несуществующее наследство. Сюжет прост, комичен, но вечные темы – деньги и взаимоотношения людей, истинная страстная любовь и бескорыстие.

Релиз: by Cheef mate
Качество видео: DVB
Формат видео: MPEG-PS
Аудио кодек: MP2
Видео кодек: MPEG-2
Видео: MPEG Video, 720x576 (4 : 3), 25,000 кадров/сек, 5359 Кбит/сек
Аудио: MPEG Audio, 48,0 КГц, 256 Кбит/сек, 2 канала
Общее
Полное имя : E:\Torrent\Наследники Рабурдена\Наследники Рабурдена.mpg
Формат : MPEG-PS
Размер файла : 3,58 Гбайт
Продолжительность : 1 ч. 29 м.
Режим общего битрейта : Переменный
Общий поток : 5729 Кбит/сек

Видео
Идентификатор : 224 (0xE0)
Формат : MPEG Video
Версия формата : Version 2
Профиль формата : Main@Main
Параметр BVOP формата : Да
Параметр матрицы формата : Выборочная
Параметр GOP формата : M=2, N=12
Продолжительность : 1 ч. 29 м.
Вид битрейта : Переменный
Битрейт : 5359 Кбит/сек
Максимальный битрейт : 10000 Кбит/сек
Ширина : 720 пикселей
Высота : 576 пикселей
Соотношение сторон : 4:3
Частота кадров : 25,000 кадров/сек
Стандарт вещания : PAL
Цветовое пространство : YUV
Субдискретизация насыщенности : 4:2:0
Битовая глубина : 8 бит
Тип развёртки : Чересстрочная
Порядок развёртки : Верхнее поле первое
Метод сжатия : С потерями
Бит/(Пиксели*Кадры) : 0.517
Размер потока : 3,35 Гбайт (94%)

Аудио
Идентификатор : 192 (0xC0)
Формат : MPEG Audio
Версия формата : Version 1
Профиль формата : Layer 2
Продолжительность : 1 ч. 29 м.
Вид битрейта : Постоянный
Битрейт : 256 Кбит/сек
Каналы : 2 канала
Частота : 48,0 КГц
Метод сжатия : С потерями
Размер потока : 164 Мбайт (4%)
СТАЖ

МЕДАЛИ
Награды:8

За отличные раздачи и качество (4)

Аватара пользователя
mister Pitkin
Опытный Релизёр-Корсар
  • Торрент
Для скачивания торрента необходимо зарегистрироваться или войти на трекер.

Вернуться в Фильмы-спектакли, театральные постановки



Uptime по данным Ping-Admin.Ru - сервиса мониторинга доступности сайтов
Рейтинг@Mail.ru Голосуйте за наш сайт в каталоге Rubo.Ru