logo
Международный русскоязычный
торрент-трекер
Menu
Doublon
Поделиться с друзьями: 
Голосуй за Корсар и получи 500 дублонов
Рейтинг торрент трекеров - UpTracker.ru

Нарко / Narcos / Сезон: 1 / Серии: 1-10 из 10 (2015, драма, криминал, WEBRip 720p)

Сообщение Korsar » 04 дек 2016, 03:59

Название: Нарко
Оригинальное название: Narcos
Год выпуска: 2015
Жанр: Драма, криминал
Режиссёр: Жозе Падилья
В ролях: Вагнер Моура, Морис Комт, Джоанна Кристи, Бойд Холбрук, Педро Паскаль, Стефани Сигман, Роберто Урбина, Ана де ла Регера, Даниэль Кеннеди, Диего Катаньо

Описание: Преступную деятельность будущий влиятельнейший наркобарон Колумбии Пабло Эскобар начал ещё в детстве с воровства и мошенничества, после он перешёл на рэкет, вооружённые налёты и похищение людей. Когда вокруг Пабло сформировалась мощная группировка он решил расширяться в сторону самого перспективного и бездонного рынка - поставки колумбийского кокаина в Соединённые Штаты, где основной проблемой Управления по борьбе с наркотиками до этого момента были лишь добродушные хиппи с их марихуаной. Американские нарки в кратчайшие сроки озолотили юного Пабло и дали ему неограниченную власть на родине, где наркобарон, благодаря своим вложениям в местную экономику, стал настоящим героем. Вместе с несколькими влиятельными коллегами Эскобар создаёт Медельинский кокаиновый картель, закупает всевозможную технику для контрабанды своей продукции на север и открывает множество лабораторий по производству белого порошка в безлюдных джунглях. Держа в страхе политиков Колумбии Пабло всегда добивался желаемого любой ценой, предоставляя потенциальным жертвам выбор между получением взятки и пулей в голову.



Страна: США
Продолжительность: 10х ~ 00:50:00
Переводы:
Профессиональный (многоголосый закадровый) LostFilm
Профессиональный (многоголосый закадровый) NewStudio
Любительский (многоголосый закадровый) ViruseProject
Любительский (двухголосый закадровый) Jimmy J.

Качество: WEBRip 720p
Контейнер: MKV
Видео: x264, 1280x720 (16:9), 23.976 fps, ~3500kbps, 0.138 bit/pixel
Аудио 1: AC3, 48 kHz, 6 ch, 384 kbps, CBR - LostFilm
Аудио 2: AC3, 48 kHz, 6 ch, 384 kbps, CBR - NewStudio
Аудио 3: AC3, 48 kHz, 2 ch, 384 kbps, CBR - ViruseProject
Аудио 4: AC3, 48 kHz, 6 ch, 384 kbps, CBR - Jimmy J.
Аудио 5: AC3, 48 kHz, 6 ch, 384 kbps, CBR - оригинал
Субтитры: Русские (Notabenoid), английские (форсированные, полные)

Общее
Уникальный идентификатор : 196400557735655086706659525154789619284 (0x93C15F1C2E1F73DF9ECB87F8FE337654)
Полное имя : G:\Films\Narcos.S01.720p.WEBRip.sborka\Narcos.S01E01.720p.WEBRip.4xRus.Eng.mkv
Формат : Matroska
Версия формата : Version 4 / Version 2
Размер файла : 2,12 Гбайт
Продолжительность : 56 м.
Общий поток : 5333 Кбит/сек
Дата кодирования : UTC 2015-09-09 13:44:28
Программа кодирования : mkvmerge v8.3.0 ('Over the Horizon') 64bit
Библиотека кодирования : libebml v1.3.1 + libmatroska v1.4.2
DURATION : 00:55:50.897000000
NUMBER_OF_FRAMES : 826
NUMBER_OF_BYTES : 49915
_STATISTICS_WRITING_APP : mkvmerge v8.3.0 ('Over the Horizon') 64bit
_STATISTICS_WRITING_DATE_UTC : 2015-09-09 13:44:28
_STATISTICS_TAGS : BPS DURATION NUMBER_OF_FRAMES NUMBER_OF_BYTES

Видео
Идентификатор : 1
Формат : AVC
Формат/Информация : Advanced Video Codec
Профиль формата : High@L4.1
Параметр CABAC формата : Да
Параметр ReFrames формата : 9 кадров
Идентификатор кодека : V_MPEG4/ISO/AVC
Продолжительность : 56 м.
Битрейт : 3560 Кбит/сек
Ширина : 1280 пикселей
Высота : 720 пикселей
Соотношение сторон : 16:9
Режим частоты кадров : Постоянный
Частота кадров : 23,976 кадра/сек
Цветовое пространство : YUV
Субдискретизация насыщенности : 4:2:0
Битовая глубина : 8 бит
Тип развёртки : Прогрессивная
Бит/(Пиксели*Кадры) : 0.138
Размер потока : 1,21 Гбайт (57%)
Библиотека кодирования : x264 core 144 r2525 40bb568
Настройки программы : cabac=1 / ref=9 / deblock=1:-3:-3 / analyse=0x3:0x133 / me=umh / subme=10 / psy=1 / psy_rd=1.00:0.00 / mixed_ref=1 / me_range=48 / chroma_me=1 / trellis=2 / 8x8dct=1 / cqm=0 / deadzone=21,11 / fast_pskip=0 / chroma_qp_offset=-2 / threads=12 / lookahead_threads=2 / sliced_threads=0 / nr=0 / decimate=0 / interlaced=0 / bluray_compat=0 / constrained_intra=0 / bframes=8 / b_pyramid=2 / b_adapt=2 / b_bias=0 / direct=3 / weightb=1 / open_gop=0 / weightp=2 / keyint=250 / keyint_min=24 / scenecut=40 / intra_refresh=0 / rc=crf / mbtree=0 / crf=18.0 / qcomp=0.60 / qpmin=0 / qpmax=69 / qpstep=4 / ip_ratio=1.40 / pb_ratio=1.30 / aq=1:0.65
Язык : English
Default : Да
Forced : Нет
DURATION : 00:56:56.413000000
NUMBER_OF_FRAMES : 81912
NUMBER_OF_BYTES : 1346630714
_STATISTICS_WRITING_APP : mkvmerge v8.3.0 ('Over the Horizon') 64bit
_STATISTICS_WRITING_DATE_UTC : 2015-09-09 13:44:28
_STATISTICS_TAGS : BPS DURATION NUMBER_OF_FRAMES NUMBER_OF_BYTES

Аудио #1
Идентификатор : 2
Формат : AC-3
Формат/Информация : Audio Coding 3
Расширение режима : CM (complete main)
Параметр Endianness формата : Big
Идентификатор кодека : A_AC3
Продолжительность : 56 м.
Вид битрейта : Постоянный
Битрейт : 384 Кбит/сек
Каналы : 6 каналов
Расположение каналов : Front: L C R, Side: L R, LFE
Частота : 48,0 КГц
Метод сжатия : С потерями
Размер потока : 156 Мбайт (7%)
Заголовок : LostFilm 5.1
Язык : Russian
Default : Да
Forced : Нет

Аудио #2
Идентификатор : 3
Формат : AC-3
Формат/Информация : Audio Coding 3
Расширение режима : CM (complete main)
Параметр Endianness формата : Big
Идентификатор кодека : A_AC3
Продолжительность : 56 м.
Вид битрейта : Постоянный
Битрейт : 384 Кбит/сек
Каналы : 6 каналов
Расположение каналов : Front: L C R, Side: L R, LFE
Частота : 48,0 КГц
Метод сжатия : С потерями
Размер потока : 156 Мбайт (7%)
Заголовок : NewStudio 5.1
Язык : Russian
Default : Нет
Forced : Нет

Аудио #3
Идентификатор : 4
Формат : AC-3
Формат/Информация : Audio Coding 3
Расширение режима : CM (complete main)
Параметр Endianness формата : Big
Идентификатор кодека : A_AC3
Продолжительность : 56 м.
Вид битрейта : Постоянный
Битрейт : 384 Кбит/сек
Каналы : 2 канала
Расположение каналов : Front: L R
Частота : 48,0 КГц
Метод сжатия : С потерями
Размер потока : 156 Мбайт (7%)
Заголовок : ViruseProject 2.0
Язык : Russian
Default : Нет
Forced : Нет

Аудио #4
Идентификатор : 5
Формат : AC-3
Формат/Информация : Audio Coding 3
Расширение режима : CM (complete main)
Параметр Endianness формата : Big
Идентификатор кодека : A_AC3
Продолжительность : 56 м.
Вид битрейта : Постоянный
Битрейт : 384 Кбит/сек
Каналы : 6 каналов
Расположение каналов : Front: L C R, Side: L R, LFE
Частота : 48,0 КГц
Метод сжатия : С потерями
Размер потока : 156 Мбайт (7%)
Заголовок : Jimmy J 5.1
Язык : Russian
Default : Нет
Forced : Нет

Аудио #5
Идентификатор : 6
Формат : AC-3
Формат/Информация : Audio Coding 3
Расширение режима : CM (complete main)
Параметр Endianness формата : Big
Идентификатор кодека : A_AC3
Продолжительность : 56 м.
Вид битрейта : Постоянный
Битрейт : 640 Кбит/сек
Каналы : 6 каналов
Расположение каналов : Front: L C R, Side: L R, LFE
Частота : 48,0 КГц
Метод сжатия : С потерями
Размер потока : 261 Мбайт (12%)
Заголовок : original 5.1
Язык : English
Default : Нет
Forced : Нет

Текст #1
Идентификатор : 7
Формат : UTF-8
Идентификатор кодека : S_TEXT/UTF8
Идентификатор кодека/Информация : UTF-8 Plain Text
Заголовок : rus
Язык : Russian
Default : Нет
Forced : Нет

Текст #2
Идентификатор : 8
Формат : UTF-8
Идентификатор кодека : S_TEXT/UTF8
Идентификатор кодека/Информация : UTF-8 Plain Text
Заголовок : FORCED
Язык : English
Default : Нет
Forced : Нет

Текст #3
Идентификатор : 9
Формат : UTF-8
Идентификатор кодека : S_TEXT/UTF8
Идентификатор кодека/Информация : UTF-8 Plain Text
Заголовок : CC
Язык : English
Default : Нет
Forced : Нет
КУБКИ

СТАЖ

МЕДАЛИ
Награды:13

Пожизненный VIP+ (1) За активную помощь проекту (1) Лучший по количеству кубков (1) За отличные раздачи и качество (4) За отличные комментарии (3) Почётный форумчанин (1) Верный Сид (2)

Аватара пользователя
СССР
Korsar
Заслуженный Корсар-Вип+
  • Торрент
Для скачивания торрента необходимо зарегистрироваться или войти на трекер.

Сообщение Dantex20 » 02 фев 2020, 16:35

Спасибо за раздачу!
Вопрос немного (совсем) не в тему... Кто-нибудь еще, кроме меня, начал скачивать данный сериал после прочтения/просмотра романа/фильма ТЕКСТ? :bajan: :-drinks:
КУБКИ

СТАЖ

МЕДАЛИ
Награды:1

За помощь проекту в 200 рублей (1)

Аватара пользователя
СССР
Dantex20
Уважаемый Корсар

Сообщение Lonrak1975 » 02 фев 2020, 17:20

Dantex20 писал(а):Вопрос немного (совсем) не в тему... Кто-нибудь еще, кроме меня, начал скачивать данный сериал после прочтения/просмотра романа/фильма ТЕКСТ?

Я лично смотрел сериал по выходу на видео и остался очень доволен ;) :super:
КУБКИ

СТАЖ

МЕДАЛИ
Награды:30

За помощь проекту в 200 рублей (1) За помощь проекту в 300 рублей (2) Лучший по количеству кубков (2) За отличные комментарии (24) Почётный форумчанин (1)

Аватара пользователя
СССР
Lonrak1975
Мини VIP-300

Сообщение Dantex20 » 02 фев 2020, 19:59

Тааак... После сегодняшнего обновления с озвучкой от LostFilm возник еще один вопрос (сам-то я скачал с ранней озвучкой от NewStudiо) :senks2:
Таки в каком переводе смотреть предпочтительнее: от NewStudio или LostFilm ? :wall:
Только собираюсь просматривать... :drinks:
P.S. Впрочем, сам и отвечу на свой вопрос. :stronomer: Скачивается альтернативная раздача :pioneer:
КУБКИ

СТАЖ

МЕДАЛИ
Награды:1

За помощь проекту в 200 рублей (1)

Аватара пользователя
СССР
Dantex20
Уважаемый Корсар


Вернуться в Зарубежные сериалы (HD Video)



Uptime по данным Ping-Admin.Ru - сервиса мониторинга доступности сайтов
Рейтинг@Mail.ru