logo
Международный русскоязычный
торрент-трекер
Menu
Doublon
Поделиться с друзьями: 
Голосуй за Корсар и получи 400 дублонов
Рейтинг торрент трекеров - UpTracker.ru

Музыка в темноте / Musik i mörker (1948, Драма, музыка, WEB-DLRip 720p) - KORSAR

Сообщение filbi1976 » 17 ноя 2018, 09:22

Музыка в темноте / Музыка во тьме / Musik i mörker / Music in

Страна: Швеция
Студия: Terrafilm
Жанр: драма
Год выпуска: 1948
Продолжительность: 01:27:22
Перевод 1: Студийный (одноголосый закадровый) (Киностудия им. М. Горького)
Перевод 2: Профессиональный (двухголосый закадровый) (iTunes)
Режиссер: Ингмар Бергман / Ingmar Bergman
В ролях: Май Цеттерлинг, Биргер Мальмстин, Бенгт Эклунд, Улоф Виннерстранд, Наима Вифстранд, Хильда Боргстрем, Дуглас Хоге, Гуннар Бьернстранд

Описание: Киноповесть об ослепшем музыканте, его попытках самоопределения, борьбе с недугом и трудной любви. Герой проходит суровую школу жизни, закаляя волю и силу духа.



Качество: WEB-DLRip 720p
Контейнер: MKV
Видео: MPEG-4 AVC, 992x720, 24.000 fps, 5686 Kbps
Аудио 1: Русский: AC-3; 16 bits 48 Khz; 1.0 ch 192 Kbps; CBR | VO
Аудио 2: Русский: AAC-LC: 2.0ch 48 Khz; ~125 Kbps VBR | DVO
Аудио 3: Шведский: AC-3; 16 bits 48 Khz; 2.0 ch 192 Kbps; CBR | Original swe
Субтитры: Французские, английские

  • x264 [info]: frame I:683 Avg QP:16.77 size:112776
  • x264 [info]: frame P:23643 Avg QP:18.38 size: 64378
  • x264 [info]: frame B:101265 Avg QP:20.55 size: 20937
  • x264 [info]: consecutive B-frames: 0.7% 0.4% 2.5% 13.3% 21.2% 54.7% 4.8% 1.3% 1.0% 0.1%
Общее
Уникальный идентификатор : 250970428595327641334231277015168129374 (0xBCCF2577C44302E3B31C024DFFE7195E)
Полное имя : D:\Музыка во тьме_1948-WEB-DLRip 720p_KORSAR.mkv
Формат : Matroska
Версия формата : Version 2
Размер файла : 3,78 Гбайт
Продолжительность : 1 ч. 27 м.
Общий поток : 6197 Кбит/сек
Название фильма : D:\Музыка во тьме_1948-WEB-DLRip 720p_KORSAR.mkv
Дата кодирования : UTC 2018-11-17 06:10:50
Программа кодирования : mkvmerge v5.8.0 ('No Sleep / Pillow') built on Sep 2 2012 15:37:04
Библиотека кодирования : libebml v1.2.3 + libmatroska v1.3.0

Видео
Идентификатор : 1
Формат : AVC
Формат/Информация : Advanced Video Codec
Профиль формата : High@L4.1
Параметр CABAC формата : Да
Параметр RefFrames формата : 11 кадров
Идентификатор кодека : V_MPEG4/ISO/AVC
Продолжительность : 1 ч. 27 м.
Ширина : 992 пикселя
Высота : 720 пикселей
Соотношение сторон : 1,378
Режим частоты кадров : Постоянный
Частота кадров : 24,000 кадра/сек
Цветовое пространство : YUV
Субдискретизация насыщенности : 4:2:0
Битовая глубина : 8 бит
Тип развёртки : Прогрессивная
Библиотека кодирования : x264 core 152 r2851kMod ba24899
Настройки программы : cabac=1 / ref=11 / deblock=1:-2:-2 / analyse=0x3:0x113 / me=umh / subme=10 / psy=1 / fade_compensate=0.00 / psy_rd=1.00:0.10 / mixed_ref=1 / me_range=40 / chroma_me=1 / trellis=2 / 8x8dct=1 / cqm=0 / deadzone=21,11 / fast_pskip=1 / chroma_qp_offset=-3 / threads=12 / lookahead_threads=2 / sliced_threads=0 / nr=0 / decimate=1 / interlaced=0 / bluray_compat=0 / constrained_intra=0 / bframes=9 / b_pyramid=2 / b_adapt=2 / b_bias=0 / direct=1 / weightb=1 / open_gop=0 / weightp=2 / keyint=240 / keyint_min=24 / scenecut=40 / intra_refresh=0 / rc=crf / mbtree=0 / crf=18.0000 / qcomp=0.63 / qpmin=0 / qpmax=45 / qpstep=4 / ip_ratio=1.40 / pb_ratio=1.30 / aq=2:0.80
Язык : English
Default : Да
Forced : Нет
Цветовой диапазон : Limited
Основные цвета : BT.709
Характеристики трансфера : BT.709
Коэффициенты матрицы : BT.709

Аудио #1
Идентификатор : 2
Формат : AC-3
Формат/Информация : Audio Coding 3
Параметр Endianness формата : Big
Идентификатор кодека : A_AC3
Продолжительность : 1 ч. 27 м.
Вид битрейта : Постоянный
Битрейт : 192 Кбит/сек
Каналы : 1 канал
Расположение каналов : Front: C
Частота : 48,0 КГц
Частота кадров : 31,250 кадров/сек (1536 SPF)
Битовая глубина : 16 бит
Метод сжатия : С потерями
Размер потока : 120 Мбайт (3%)
Заголовок : AC-3; 16 bits 48 Khz; 1.0 ch 192 Kbps; CBR | VO (Киностудия им. М. Горького)
Язык : Russian
ServiceKind/String : Complete Main
Default : Да
Forced : Нет

Аудио #2
Идентификатор : 3
Формат : AAC
Формат/Информация : Advanced Audio Codec
Профиль формата : LC
Идентификатор кодека : A_AAC
Продолжительность : 1 ч. 27 м.
Каналы : 2 канала
Расположение каналов : Front: L R
Частота : 48,0 КГц
Частота кадров : 46,875 кадров/сек (1024 SPF)
Метод сжатия : С потерями
Заголовок : AAC-LC: 2.0ch 48 Khz; ~125 Kbps VBR | DVO (iTunes)
Язык : Russian
Default : Нет
Forced : Нет

Аудио #3
Идентификатор : 4
Формат : AC-3
Формат/Информация : Audio Coding 3
Параметр Endianness формата : Big
Идентификатор кодека : A_AC3
Продолжительность : 1 ч. 27 м.
Вид битрейта : Постоянный
Битрейт : 192 Кбит/сек
Каналы : 2 канала
Расположение каналов : Front: L R
Частота : 48,0 КГц
Частота кадров : 31,250 кадров/сек (1536 SPF)
Битовая глубина : 16 бит
Метод сжатия : С потерями
Размер потока : 120 Мбайт (3%)
Заголовок : AC-3; 16 bits 48 Khz; 2.0 ch 192 Kbps; CBR | Original swe
Язык : Swedish
ServiceKind/String : Complete Main
Default : Нет
Forced : Нет

Текст #1
Идентификатор : 5
Формат : UTF-8
Идентификатор кодека : S_TEXT/UTF8
Идентификатор кодека/Информация : UTF-8 Plain Text
Заголовок : Субтитры французкие
Язык : French
Default : Нет
Forced : Нет

Текст #2
Идентификатор : 6
Формат : UTF-8
Идентификатор кодека : S_TEXT/UTF8
Идентификатор кодека/Информация : UTF-8 Plain Text
Заголовок : Субтитры английские
Язык : English
Default : Нет
Forced : Нет

За исходник спасибо: george$t
КУБКИ

СТАЖ

МЕДАЛИ
Награды:69

За помощь проекту (1) За отличные раздачи и качество (50) За отличные комментарии (1) Верный Сид (14) За участие в конкурсах/играх (1)

Аватара пользователя
Тортуга
filbi1976
Администратор-Корсар
Раздачи группы KORSAR разрешено перезаливать спустя сутки после публикации
  • Торрент
Для скачивания торрента необходимо зарегистрироваться или войти на трекер.

Вернуться в Классика зарубежного кино (фильмы до 1980 года / HD Video)



Uptime по данным Ping-Admin.Ru - сервиса мониторинга доступности сайтов
Рейтинг@Mail.ru Голосуйте за наш сайт в каталоге Rubo.Ru