logo
Международный русскоязычный
торрент-трекер
Menu

Doublon
Поделиться с друзьями: 
Голосуй за Корсар и получи 150 дублонов
Рейтинг торрент трекеров - UpTracker.ru

Мусульманин (1995, драма, WEBRip-AVC) - KORSAR

Сообщение filbi1976 » 03 июн 2018, 18:33

Мусульманин

Жанр: драма
Год выпуска: 1995
Продолжительность: 01:46:50
Режиссёр: Владимир Хотиненко
В ролях: Евгений Миронов, Нина Усатова, Александр Балуев, Евдокия Германова, Иван Бортник, Владимир Ильин, Петр Зайченко

Описание: Рядовой Николай Иванов пробыл в плену у моджахедов 7 лет. Когда его вели расстреливать, проезжавший мимо крестьянин выкупил Николая, и тот заменил ему убитого сына. В родное село парень вернулся мусульманином в самом лучшем понимании этого слова. Но понимания среди односельчан и родных он не встретил. Напротив, многие восприняли это враждебно.

Кодек: х264
Качество: WEBRip-AVC
Видео: MPEG-4 AVC, 1070x648, 25 fps, 4500 Кбит/с
Звук: AC3, 2 ch, 224 Кбит/с



Большой специальный приз на МКФ в Монреале.
Ника, 1996 год
Победитель (3):
Лучшая женская роль ( Нина Усатова )
Лучшая роль второго плана ( Александр Балуев )
Лучший сценарий
Номинации (5):
Лучший фильм
Лучшая мужская роль (Евгений Миронов)
Лучший режиссер (Владимир Хотиненко)
Лучшая операторская работа (Алексей Родионов)
Лучший композитор (Александр Пантыкин)
Кинотавр, 1995 год
Победитель (2):
Лучшая мужская роль ( Александр Балуев )
Лучшая женская роль ( Нина Усатова )
Номинации (1):
Гран-при Большого конкурса

    x264 [info]: frame I:831 Avg QP:16.92 size:137749
    x264 [info]: frame P:31828 Avg QP:19.27 size: 61300
    x264 [info]: frame B:127401 Avg QP:21.94 size: 12062
    x264 [info]: consecutive B-frames: 3.1% 4.0% 5.8% 7.9% 7.9% 30.2% 12.0% 7.0% 6.1% 10.2% 2.0% 1.6% 0.8% 0.9% 0.2% 0.1% 0.2%
Общее
Уникальный идентификатор : 194025946852938350841996945428242533400 (0x91F809C121E2BCBFBAB6E86B8F1C8C18)
Полное имя : D:\Мусульманин_1995-WEBRip-AVC_KORSAR.mkv
Формат : Matroska
Версия формата : Version 2
Размер файла : 3,52 Гбайт
Продолжительность : 1 ч. 46 м.
Общий поток : 4727 Кбит/сек
Название фильма : Мусульманин_1995-WEBRip-AVC_KORSAR
Дата кодирования : UTC 2018-06-20 18:29:27
Программа кодирования : mkvmerge v5.8.0 ('No Sleep / Pillow') built on Sep 2 2012 15:37:04
Библиотека кодирования : libebml v1.2.3 + libmatroska v1.3.0

Видео
Идентификатор : 1
Формат : AVC
Формат/Информация : Advanced Video Codec
Профиль формата : High@L4.1
Параметр CABAC формата : Да
Параметр RefFrames формата : 11 кадров
Идентификатор кодека : V_MPEG4/ISO/AVC
Продолжительность : 1 ч. 46 м.
Битрейт : 4500 Кбит/сек
Ширина : 1070 пикселей
Высота : 648 пикселей
Соотношение сторон : 5:3
Режим частоты кадров : Постоянный
Частота кадров : 25,000 кадров/сек
Цветовое пространство : YUV
Субдискретизация насыщенности : 4:2:0
Битовая глубина : 8 бит
Тип развёртки : Прогрессивная
Бит/(Пиксели*Кадры) : 0.260
Размер потока : 3,29 Гбайт (93%)
Библиотека кодирования : x264 core 152 r2851kMod ba24899
Настройки программы : cabac=1 / ref=11 / deblock=1:-2:-2 / analyse=0x3:0x113 / me=umh / subme=10 / psy=1 / fade_compensate=0.00 / psy_rd=1.05:0.15 / mixed_ref=1 / me_range=40 / chroma_me=1 / trellis=2 / 8x8dct=1 / cqm=0 / deadzone=21,11 / fast_pskip=0 / chroma_qp_offset=-3 / threads=12 / lookahead_threads=3 / sliced_threads=0 / nr=0 / decimate=0 / interlaced=0 / bluray_compat=0 / constrained_intra=0 / bframes=16 / b_pyramid=2 / b_adapt=2 / b_bias=0 / direct=3 / weightb=1 / open_gop=0 / weightp=2 / keyint=250 / keyint_min=25 / scenecut=40 / intra_refresh=0 / rc=2pass / mbtree=0 / bitrate=4500 / ratetol=1.0 / qcomp=0.63 / qpmin=0 / qpmax=39 / qpstep=4 / cplxblur=20.0 / qblur=0.5 / ip_ratio=1.40 / pb_ratio=1.30 / aq=2:1.00
Язык : English
Default : Да
Forced : Нет
Цветовой диапазон : Limited
Основные цвета : BT.709
Характеристики трансфера : BT.709
Коэффициенты матрицы : BT.709

Аудио
Идентификатор : 2
Формат : AC-3
Формат/Информация : Audio Coding 3
Параметр Endianness формата : Big
Идентификатор кодека : A_AC3
Продолжительность : 1 ч. 46 м.
Вид битрейта : Постоянный
Битрейт : 224 Кбит/сек
Каналы : 2 канала
Расположение каналов : Front: L R
Частота : 48,0 КГц
Частота кадров : 31,250 кадров/сек (1536 SPF)
Битовая глубина : 16 бит
Метод сжатия : С потерями
Размер потока : 171 Мбайт (5%)
Язык : Russian
ServiceKind/String : Complete Main
Default : Да
Forced : Нет
Аватара пользователя
filbi1976
Администратор-Корсар
 
 

Награды: 43
За отличные раздачи и качество (32) Верный Сид (8) За участие в конкурсах (1)
Раздачи группы KORSAR разрешено перезаливать спустя сутки после публикации
  • Торрент
Для скачивания торрента необходимо зарегистрироваться или войти на трекер.

Сообщение Korsar » 04 июн 2018, 01:14

Спасибо Сереж. :-drinks:

Боцман
Аватара пользователя
Korsar
Помощник Администратора-Корсар
 
 

Награды: 28
За помощь проекту (1) За отличные раздачи и качество (12) За подробное оформление раздач (1) За отличные комментарии (1) Верный Сид (9) За участие в конкурсах (2)

Сообщение Bars_St » 04 июн 2018, 07:15

Спасибо!!! :hi: :hi: :hi:
Аватара пользователя
Bars_St
Заслуженный Корсар-Вип
 
 

Награды: 23
За помощь проекту (8) Лучший по количеству кубков (2) За отличные комментарии (7) Верный Сид (6)

Сообщение verybigpapa » 04 июн 2018, 10:36

Уважаемый filbi1976, огромное спасибо! :hi: Очень сильный фильм. :10 balov: :respect:
Улыбайтесь, господа! Улыбайтесь!
Аватара пользователя
verybigpapa
Заслуженный Корсар-Вип
 
 

Награды: 29
За помощь проекту (12) Лучший по количеству кубков (7) За отличные комментарии (4) Верный Сид (6)

Сообщение dzalaev » 04 июн 2018, 14:09

Великолепное кино! Сергей, большое спасибо! :good: :10 balov:
Аватара пользователя
dzalaev
Заслуженный Корсар-Вип
 
 

Награды: 7
За помощь проекту (2) За отличные комментарии (4) Верный Сид (1)

Сообщение Bars_St » 13 июн 2018, 18:16

Спасибо!!!! :hi: :hi: :hi:
Аватара пользователя
Bars_St
Заслуженный Корсар-Вип
 
 

Награды: 23
За помощь проекту (8) Лучший по количеству кубков (2) За отличные комментарии (7) Верный Сид (6)

Сообщение filbi1976 » 20 июн 2018, 21:32

Улучшено качество, просьба перекачать! :hi:
Аватара пользователя
filbi1976
Администратор-Корсар
 
 

Награды: 43
За отличные раздачи и качество (32) Верный Сид (8) За участие в конкурсах (1)

Сообщение Bars_St » 21 июн 2018, 10:44

Спасибо!!! :hi: :hi: :hi:
Аватара пользователя
Bars_St
Заслуженный Корсар-Вип
 
 

Награды: 23
За помощь проекту (8) Лучший по количеству кубков (2) За отличные комментарии (7) Верный Сид (6)


Вернуться в Наше современное кино



Uptime по данным Ping-Admin.Ru - сервиса мониторинга доступности сайтов
Рейтинг@Mail.ru