logo
Международный русскоязычный
торрент-трекер
Menu

Doublon
Поделиться с друзьями: 
Голосуй за Корсар и получи 400 дублонов
Рейтинг торрент трекеров - UpTracker.ru

Мумии: Секреты фараонов / IMAX - Mummies: Secrets of the Pharaohs (2007, документальный, BDRip 1080p)

Сообщение Korsar » 11 апр 2017, 21:26

Название: Мумии: Секреты фараонов
Оригинальное название: Mummies: Secrets of the Pharaohs
Год выхода: 2007
Жанр: документальный, драма, семейный, биография
Режиссер: Кейт Мелтон
В ролях: Элана Драго, Уильям Хоуп, Нассер Мемарзиа, Криспин Редмен, Дауд Шах, Борис Терраль, Брахим Букхиззу, Боб Бриер, Брахим Чурки, Анжелика Корталс

Сюжет фильма:

Вы переноситесь в увлекательный и красивый мир древнего Египта. Это археологическое и научное приключение по следам исследователей и первооткрывателей, из рассказа которых складывается представление о культуре древнего Египта, о секретах мумий, о генетических находках.



Выпущено: США
Продолжительность: 00:38:41





Формат: MKV
Видео: 1920x1080 at 23.976 fps, x264@L4.1, ~12 Mbps avg
Аудио#1: Russian: 48 kHz, DTS, 3/2 (L,C,R,l,r) + LFE ch, ~768 kbps avg |Одноголосый закадровый|
Аудио#2: English: 48 kHz, DTS, 3/2 (L,C,R,l,r) + LFE ch, ~1510 kbps avg
Субтитры: Russian forced, Russian full (UTF-8)

Mummies.Secrets of.the.Pharaohs.2007.1080p.BluRay.Rus.Eng
Format                                   : Matroska
Format version                           : Version 4 / Version 2
File size                                : 3.86 GiB
Duration                                 : 38mn 41s
Overall bit rate mode                    : Variable
Overall bit rate                         : 14.3 Mbps
Encoded date                             : UTC 2013-01-31 09:20:19
Writing application                      : mkvmerge v6.0.0 ('Coming Up For Air') built on Jan 20 2013 09:52:00
Writing library                          : libebml v1.3.0 + libmatroska v1.4.0

Video
ID                                       : 1
Format                                   : AVC
Format/Info                              : Advanced Video Codec
Format profile                           : High@L4.1
Format settings, CABAC                   : Yes
Format settings, ReFrames                : 3 frames
Codec ID                                 : V_MPEG4/ISO/AVC
Duration                                 : 38mn 41s
Bit rate mode                            : Variable
Bit rate                                 : 12.0 Mbps
Maximum bit rate                         : 30.0 Mbps
Width                                    : 1 920 pixels
Height                                   : 1 080 pixels
Display aspect ratio                     : 16:9
Frame rate mode                          : Constant
Frame rate                               : 23.976 fps
Color space                              : YUV
Chroma subsampling                       : 4:2:0
Bit depth                                : 8 bits
Scan type                                : Progressive
Bits/(Pixel*Frame)                       : 0.241
Stream size                              : 3.17 GiB (82%)
Writing library                          : x264 core 129 r2245 bc13772
Encoding settings                        : cabac=1 / ref=4 / deblock=1:-3:-3 / analyse=0x3:0x113 / me=umh / subme=10 / psy=1 / psy_rd=1.00:0.00 / mixed_ref=1 / me_range=28 / chroma_me=1 / trellis=2 / 8x8dct=1 / cqm=0 / deadzone=21,11 / fast_pskip=1 / chroma_qp_offset=-2 / threads=6 / lookahead_threads=1 / sliced_threads=0 / slices=4 / nr=0 / decimate=1 / interlaced=0 / bluray_compat=1 / constrained_intra=0 / bframes=3 / b_pyramid=1 / b_adapt=2 / b_bias=0 / direct=3 / weightb=1 / open_gop=1 / weightp=1 / keyint=240 / keyint_min=1 / scenecut=40 / intra_refresh=0 / rc_lookahead=229 / rc=2pass / mbtree=1 / bitrate=12000 / ratetol=1.0 / qcomp=0.70 / qpmin=0 / qpmax=69 / qpstep=4 / cplxblur=20.0 / qblur=0.5 / vbv_maxrate=30000 / vbv_bufsize=12000 / nal_hrd=vbr / ip_ratio=1.40 / aq=1:1.00
Language                                 : English
Default                                  : Yes
Forced                                   : No

Audio #1
ID                                       : 2
Format                                   : DTS
Format/Info                              : Digital Theater Systems
Mode                                     : 16
Format settings, Endianness              : Big
Codec ID                                 : A_DTS
Duration                                 : 38mn 41s
Bit rate mode                            : Constant
Bit rate                                 : 768 Kbps
Channel(s)                               : 6 channels
Channel positions                        : Front: L C R, Side: L R, LFE
Sampling rate                            : 48.0 KHz
Bit depth                                : 24 bits
Compression mode                         : Lossy
Stream size                              : 213 MiB (5%)
Language                                 : Russian
Default                                  : Yes
Forced                                   : No

Audio #2
ID                                       : 3
Format                                   : DTS
Format/Info                              : Digital Theater Systems
Mode                                     : 16
Format settings, Endianness              : Big
Codec ID                                 : A_DTS
Duration                                 : 38mn 41s
Bit rate mode                            : Constant
Bit rate                                 : 1 509 Kbps
Channel(s)                               : 6 channels
Channel positions                        : Front: L C R, Side: L R, LFE
Sampling rate                            : 48.0 KHz
Bit depth                                : 24 bits
Compression mode                         : Lossy
Stream size                              : 418 MiB (11%)
Language                                 : English
Default                                  : No
Forced                                   : No

Text #1
ID                                       : 4
Format                                   : UTF-8
Codec ID                                 : S_TEXT/UTF8
Codec ID/Info                            : UTF-8 Plain Text
Title                                    : Forced
Language                                 : Russian
Default                                  : Yes
Forced                                   : No

Text #2
ID                                       : 5
Format                                   : UTF-8
Codec ID                                 : S_TEXT/UTF8
Codec ID/Info                            : UTF-8 Plain Text
Title                                    : Full
Language                                 : Russian
Default                                  : No
Forced                                   : No

Menu
00:00:00.000                             : :00:00:00.000
00:02:34.696                             : :00:02:34.696
00:04:25.807                             : :00:04:25.807
00:06:48.533                             : :00:06:48.533
00:10:10.193                             : :00:10:10.193
00:11:47.749                             : :00:11:47.749
00:14:21.277                             : :00:14:21.277
00:15:21.087                             : :00:15:21.087
00:16:51.302                             : :00:16:51.302
00:18:51.464                             : :00:18:51.464
00:21:26.035                             : :00:21:26.035
00:23:05.843                             : :00:23:05.843
00:25:55.137                             : :00:25:55.137
00:27:33.151                             : :00:27:33.151
00:29:18.173                             : :00:29:18.173
00:32:39.040                             : :00:32:39.040
00:34:22.811                             : :00:34:22.811
00:35:01.141                             : :00:35:01.141


Сохранены оригинальные главы как на Blu-ray.

За рип большое спасибо Cossmoss.
РАЗДАЧА ОТ:

Боцман
КУБКИ

СТАЖ

МЕДАЛИ
Награды:32

За помощь проекту (2) Лучший по количеству кубков (2) За отличные раздачи и качество (13) За подробное оформление раздач (1) За отличные комментарии (1) Верный Сид (11) За участие в конкурсах/играх (2)

Аватара пользователя
СССР
Korsar
Заслуженный Корсар-Вип+
  • Торрент
Для скачивания торрента необходимо зарегистрироваться или войти на трекер.

Вернуться в История: Древний мир / Античность / Средневековье (HD Video)



Uptime по данным Ping-Admin.Ru - сервиса мониторинга доступности сайтов
Рейтинг@Mail.ru Голосуйте за наш сайт в каталоге Rubo.Ru