logo
Международный русскоязычный
торрент-трекер
Menu
Doublon
Поделиться с друзьями: 
Голосуй за Корсар и получи 400 дублонов
Рейтинг торрент трекеров - UpTracker.ru

Моя девочка / My Girl (1991, драма, мелодрама, комедия, семейный, BDRip 720p) - KORSAR

Сообщение lesnik125 » 10 авг 2018, 13:03

Моя девочка

My Girl

«A When your Dad's an undertaker, your Mom's in heaven, and your Grandma's got a screw loose...it's good to have a friend who understands you. Even if he is a boy»

Страна: США
Жанр: драма, мелодрама, комедия, семейный
Год выпуска: 1991
Продолжительность: 01:42:16
Перевод: Профессиональный (многоголосый, закадровый), Авторский
Субтитры: английские.

Режиссер: Ховард Зифф / Howard Zieff

В ролях: Анна Кламски (Vada Sultenfuss), Дэн Эйкройд (Harry Sultenfuss), Маколей Калкин (Thomas J. Sennett), Джейми Ли Кёртис (Shelly DeVoto), Ричард Мейсер (Phil Sultenfuss), Гриффин Данн (Mr. Bixler), Энн Нельсон (Gramoo Sultenfuss), Питер Майкл Гец (Dr. Welty), Джейн Хэлларен (Nurse Randall), Энтони Р. Джонс (Arthur), Том Виллард (Justin), Лара Стайник (Ronda)

Описание: Одиннадцатилетняя Вейда Салтенфасс живет в большом доме вместе со своим отцом и умалишенной бабушкой. Отец Вейды занимается предоставлением ритуальных услуг населению, причем его похоронное бюро размещается в доме семейства Салтенфасс. Мрачная, похоронная атмосфера, царящая в доме, угнетающе действует на девочку.





Качество: BDRip 720p
Контейнер: MKV

Видео: MPEG-4 AVC, 1280x694 (1.85:1), 9000 kbps, 23,976 fps, 0,423 bpp
Аудио №1: русский / AC3 / 2.0 / 48 kHz / 192 kbps / MVO ( OPT )
Аудио №2: русский / AC3 / 2.0 / 48 kHz / 192 kbps / AVO ( Дохалов )
Аудио №3: русский / AC3 / 2.0 / 48 kHz / 192 kbps / AVO ( Кузнецов )
Аудио №4: английский / AC3 / 5.1 / 48 kHz / 640 kbps
Навигация по главам: есть




Формат : Matroska
Версия формата : Version 2
Размер файла : 7,30 Гбайт
Продолжительность : 1 ч. 42 м.
Общий поток : 10,2 Мбит/сек
Название фильма : = Моя девочка / My Girl (1991) BDRip 720p - KORSAR =
Дата кодирования : UTC 2018-08-07 09:07:44
Программа кодирования : mkvmerge v5.8.0 ('No Sleep / Pillow') built on Sep 2 2012 15:37:04
Библиотека кодирования : libebml v1.2.3 + libmatroska v1.3.0
Attachment : Yes

Видео
Идентификатор : 1
Формат : AVC
Формат/Информация : Advanced Video Codec
Профиль формата : High@L4.1
Параметр CABAC формата : Да
Параметр ReFrames формата : 9 кадров
Идентификатор кодека : V_MPEG4/ISO/AVC
Продолжительность : 1 ч. 42 м.
Битрейт : 9000 Кбит/сек
Ширина : 1280 пикселей
Высота : 694 пикселя
Соотношение сторон : 1,85:1
Режим частоты кадров : Постоянный
Частота кадров : 23,976 кадра/сек
Цветовое пространство : YUV
Субдискретизация насыщенности : 4:2:0
Битовая глубина : 8 бит
Тип развёртки : Прогрессивная
Бит/(Пиксели*Кадры) : 0.423
Размер потока : 6,28 Гбайт (86%)
Заголовок : Моя девочка / My Girl (1991) BDRip 720p - KORSAR
Библиотека кодирования : x264 core 148 r2744kMod b97ae06
Настройки программы : cabac=1 / ref=9 / deblock=1:-1:-2 / analyse=0x3:0x113 / me=umh / subme=11 / psy=1 / fade_compensate=0.00 / psy_rd=1.00:0.05 / mixed_ref=1 / me_range=32 / chroma_me=1 / trellis=2 / 8x8dct=1 / cqm=0 / deadzone=21,11 / fast_pskip=0 / chroma_qp_offset=-3 / threads=12 / lookahead_threads=3 / sliced_threads=0 / nr=0 / decimate=0 / interlaced=0 / bluray_compat=0 / constrained_intra=0 / bframes=12 / b_pyramid=2 / b_adapt=2 / b_bias=0 / direct=3 / weightb=1 / open_gop=0 / weightp=2 / keyint=240 / keyint_min=23 / scenecut=40 / intra_refresh=0 / rc_lookahead=60 / rc=2pass / mbtree=0 / bitrate=9000 / ratetol=1.0 / qcomp=0.66 / qpmin=0 / qpmax=39 / qpstep=4 / cplxblur=20.0 / qblur=0.5 / vbv_maxrate=50000 / vbv_bufsize=62500 / nal_hrd=none / filler=0 / ip_ratio=1.40 / pb_ratio=1.30 / aq=3:0.80
Язык : English
Default : Да
Forced : Нет
Основные цвета : BT.709
Характеристики трансфера : BT.709
Коэффициенты матрицы : BT.709

Аудио #1
Идентификатор : 2
Формат : AC-3
Формат/Информация : Audio Coding 3
Расширение режима : CM (complete main)
Параметр Endianness формата : Big
Идентификатор кодека : A_AC3
Продолжительность : 1 ч. 42 м.
Вид битрейта : Постоянный
Битрейт : 192 Кбит/сек
Каналы : 2 канала
Расположение каналов : Front: L R
Частота : 48,0 КГц
Битовая глубина : 16 бит
Метод сжатия : С потерями
Размер потока : 140 Мбайт (2%)
Заголовок : MVO ( OPT )
Язык : Russian
Default : Да
Forced : Нет

Аудио #2
Идентификатор : 3
Формат : AC-3
Формат/Информация : Audio Coding 3
Расширение режима : CM (complete main)
Параметр Endianness формата : Big
Идентификатор кодека : A_AC3
Продолжительность : 1 ч. 42 м.
Вид битрейта : Постоянный
Битрейт : 192 Кбит/сек
Каналы : 2 канала
Расположение каналов : Front: L R
Частота : 48,0 КГц
Битовая глубина : 16 бит
Метод сжатия : С потерями
Размер потока : 140 Мбайт (2%)
Заголовок : AVO ( Дохалов )
Язык : Russian
Default : Нет
Forced : Нет

Аудио #3
Идентификатор : 4
Формат : AC-3
Формат/Информация : Audio Coding 3
Расширение режима : CM (complete main)
Параметр Endianness формата : Big
Идентификатор кодека : A_AC3
Продолжительность : 1 ч. 42 м.
Вид битрейта : Постоянный
Битрейт : 192 Кбит/сек
Каналы : 2 канала
Расположение каналов : Front: L R
Частота : 48,0 КГц
Битовая глубина : 16 бит
Метод сжатия : С потерями
Размер потока : 140 Мбайт (2%)
Заголовок : AVO ( Кузнецов )
Язык : Russian
Default : Нет
Forced : Нет

Аудио #4
Идентификатор : 5
Формат : AC-3
Формат/Информация : Audio Coding 3
Расширение режима : CM (complete main)
Параметр Endianness формата : Big
Идентификатор кодека : A_AC3
Продолжительность : 1 ч. 42 м.
Вид битрейта : Постоянный
Битрейт : 640 Кбит/сек
Каналы : 6 каналов
Расположение каналов : Front: L C R, Side: L R, LFE
Частота : 48,0 КГц
Битовая глубина : 16 бит
Метод сжатия : С потерями
Размер потока : 468 Мбайт (6%)
Язык : English
Default : Нет
Forced : Нет

Текст #1
Идентификатор : 6
Формат : UTF-8
Идентификатор кодека : S_TEXT/UTF8
Идентификатор кодека/Информация : UTF-8 Plain Text
Язык : English
Default : Нет
Forced : Нет

Текст #2
Идентификатор : 7
Формат : UTF-8
Идентификатор кодека : S_TEXT/UTF8
Идентификатор кодека/Информация : UTF-8 Plain Text
Заголовок : SDH
Язык : English
Default : Нет
Forced : Нет

Меню
00:00:00.000 : en:00:00:00.000
00:05:38.421 : en:00:05:38.421
00:11:41.993 : en:00:11:41.993
00:18:01.706 : en:00:18:01.706
00:24:01.815 : en:00:24:01.815
00:29:16.880 : en:00:29:16.880
00:37:16.109 : en:00:37:16.109
00:43:38.282 : en:00:43:38.282
00:49:10.698 : en:00:49:10.698
00:53:10.771 : en:00:53:10.771
01:00:40.595 : en:01:00:40.595
01:06:07.922 : en:01:06:07.922
01:11:39.504 : en:01:11:39.504
01:16:37.259 : en:01:16:37.259
01:25:01.138 : en:01:25:01.138
01:31:00.789 : en:01:31:00.789




КУБКИ

СТАЖ

МЕДАЛИ
Награды:41

За помощь проекту (7) Лучший по количеству кубков (3) За отличные раздачи и качество (21) За подробное оформление раздач (2) Верный Сид (6)

Аватара пользователя
СССР
lesnik125
Главный Модератор-Корсар
Раздачи группы KORSAR разрешено перезаливать спустя сутки после публикации
  • Торрент
Для скачивания торрента необходимо зарегистрироваться или войти на трекер.

Сообщение Абдурахман » 10 авг 2018, 16:12

Хороший фильм.
Спасибо!
КУБКИ

СТАЖ

МЕДАЛИ
Награды:2

Верный Сид (2)

Аватара пользователя
СССР
Абдурахман
Уважаемый Корсар

Сообщение filbi1976 » 10 авг 2018, 17:16

Серёга, спасибо! :-drinks: :10 balov:
КУБКИ

СТАЖ

МЕДАЛИ
Награды:69

За помощь проекту (1) За отличные раздачи и качество (50) За отличные комментарии (1) Верный Сид (14) За участие в конкурсах/играх (1)

Аватара пользователя
Тортуга
filbi1976
Администратор-Корсар


Вернуться в Зарубежное кино (1991-2000 / HD Video)



Uptime по данным Ping-Admin.Ru - сервиса мониторинга доступности сайтов
Рейтинг@Mail.ru Голосуйте за наш сайт в каталоге Rubo.Ru