logo
Международный русскоязычный
торрент-трекер
Menu

Doublon
Поделиться с друзьями: 
Голосуй за Корсар и получи 150 дублонов
Рейтинг торрент трекеров - UpTracker.ru

Мой любимый марсианин / My Favorite Martian (1999, фантастика, комедия, семейный, WEB-DL 1080p)

Сообщение Korsar » 03 дек 2016, 00:41

Мой любимый марсианин / My Favorite Martian
«Невыносим и неотразим...»

Год выпуска: 1999
Страна: США
Жанр: фантастика, комедия, семейный
Продолжительность: 01:33:34
Перевод 1: Профессиональный (полное дублирование) - iTunes, Нева-1
Перевод 2: Профессиональный (многоголосый закадровый) - СТС
Перевод 3: Авторский (одноголосый закадровый) - CDV
Перевод 4: Авторский (одноголосый закадровый) - Ю. Живов
Режиссер: Дональд Питри
Продюсер: Джерри Лейдер, Роберт Шапиро, Марк Тоберофф
Сценарий: Джон Л. Грин, Шерри Стоунер, Дианна Оливер
В ролях: Кристофер Ллойд, Джефф Дэниелс, Элизабет Хёрли, Дэрил Ханна, Уоллес Шоун, Кристин Эберсоул, Майкл Лернер, Рей Уолстон, Шелли Мэлил, Джереми Хотц

Описание: Веселые приключения начались в тот день, когда честолюбивый репортер Тим О`Хара наткнулся на марсианина, который только что совершил вынужденную посадку на землю. Поняв, что в его руки попал самый сенсационный материал за всю историю человечества, Тим замышляет разоблачить марсианина, принявшего человеческий облик под именем «дяди Мартина». Однако невероятные проделки «дядюшки» неизменно срывают планы Тима, и тогда он принимает решение помочь изобретательному инопланетянину вернуться домой. Но сделать это не так — то просто: электронный ускоритель звездолета сломан, а власти вот — вот схватят Мартина. Успеет ли корабль взлететь вовремя?



Качество: WEB-DL 1080p
Формат: MKV
Видео: MPEG4 Video (H264) 1920x1040 23.976fps ~13200Kbps
Аудио#1: 48 kHz, AC3, 3/2 (L,C,R,l,r) + LFE ch, ~384.00 kbps avg |Дубляж - iTunes, Нева-1|
Аудио#2: 48 kHz, AC3, 2/0 (L,R) ch, ~192.00 kbps avg |Профессиональный, многоголосый - CТС|
Аудио#3: 48 kHz, AC3, 3/2 (L,C,R,l,r) + LFE ch, ~384.00 kbps avg |Авторский, одноголосый - CDV|
Аудио#4: 48 kHz, AC3, 2/0 (L,R) ch, ~192.00 kbps avg |Авторский, одноголосый - Живов|
Аудио#5: 48 kHz, E-AC3, 3/2 (L,C,R,l,r) + LFE ch, ~640.00 kbps avg |Оригинал|
Субтитры: Русские (надписи), украинские (полные), английские (полные, SDH)
Главы: 20 шт. (подписанные)

Автор рипа: spartanec163

General
Unique ID                                : 246915917404273048835094135408356843082 (0xB9C246A1DF475E1DBE41507882115E4A)
Complete name                            : D:\Видео\HD\My.Favorite.Martian.1999.1080p.WEB-DL.4xRus.Eng.mkv
Format                                   : Matroska
Format version                           : Version 4 / Version 2
File size                                : 9.78 GiB
Duration                                 : 1 h 33 min
Overall bit rate mode                    : Variable
Overall bit rate                         : 15.0 Mb/s
Movie name                               : Release by spartanec163
Encoded date                             : UTC 2016-11-21 09:01:17
Writing application                      : mkvmerge v8.3.0 ('Over the Horizon') 64bit
Writing library                          : libebml v1.3.1 + libmatroska v1.4.2

Video
ID                                       : 1
Format                                   : AVC
Format/Info                              : Advanced Video Codec
Format profile                           : High@L4
Format settings, CABAC                   : Yes
Format settings, ReFrames                : 4 frames
Codec ID                                 : V_MPEG4/ISO/AVC
Duration                                 : 1 h 33 min
Bit rate mode                            : Variable
Bit rate                                 : 13.2 Mb/s
Maximum bit rate                         : 15.0 Mb/s
Width                                    : 1 920 pixels
Height                                   : 1 040 pixels
Display aspect ratio                     : 1.85:1
Frame rate mode                          : Constant
Frame rate                               : 23.976 (24000/1001) FPS
Color space                              : YUV
Chroma subsampling                       : 4:2:0
Bit depth                                : 8 bits
Scan type                                : Progressive
Bits/(Pixel*Frame)                       : 0.275
Stream size                              : 8.61 GiB (88%)
Title                                    : WEB-DL 1080p (Amazon Video)
Writing library                          : x264 core 148 r2623 d5b2374
Encoding settings                        : cabac=1 / ref=4 / deblock=1:-1:-1 / analyse=0x3:0x133 / me=umh / subme=9 / psy=1 / psy_rd=1.00:0.15 / mixed_ref=1 / me_range=24 / chroma_me=1 / trellis=2 / 8x8dct=1 / cqm=0 / deadzone=21,11 / fast_pskip=1 / chroma_qp_offset=-3 / threads=32 / lookahead_threads=5 / sliced_threads=0 / nr=150 / decimate=1 / interlaced=0 / bluray_compat=0 / constrained_intra=0 / bframes=8 / b_pyramid=2 / b_adapt=2 / b_bias=0 / direct=3 / weightb=1 / open_gop=0 / weightp=2 / keyint=120 / keyint_min=61 / scenecut=0 / intra_refresh=0 / rc_lookahead=120 / rc=crf / mbtree=1 / crf=18.0 / qcomp=0.60 / qpmin=0 / qpmax=69 / qpstep=4 / vbv_maxrate=15000 / vbv_bufsize=31250 / crf_max=0.0 / nal_hrd=vbr / filler=0 / ip_ratio=1.40 / aq=3:1.00
Language                                 : English
Default                                  : Yes
Forced                                   : No
Color range                              : Limited
Color primaries                          : BT.709
Transfer characteristics                 : BT.709
Matrix coefficients                      : BT.709

Audio #1
ID                                       : 2
Format                                   : AC-3
Format/Info                              : Audio Coding 3
Mode extension                           : CM (complete main)
Format settings, Endianness              : Big
Codec ID                                 : A_AC3
Duration                                 : 1 h 33 min
Bit rate mode                            : Constant
Bit rate                                 : 384 kb/s
Channel(s)                               : 6 channels
Channel positions                        : Front: L C R, Side: L R, LFE
Sampling rate                            : 48.0 kHz
Frame rate                               : 31.250 FPS (1536 spf)
Bit depth                                : 16 bits
Compression mode                         : Lossy
Stream size                              : 257 MiB (3%)
Title                                    : AC3 5.1 384Kbps (Дубляж, iTunes, Нева-1)
Language                                 : Russian
Default                                  : Yes
Forced                                   : No

Audio #2
ID                                       : 3
Format                                   : AC-3
Format/Info                              : Audio Coding 3
Mode extension                           : CM (complete main)
Format settings, Endianness              : Big
Codec ID                                 : A_AC3
Duration                                 : 1 h 33 min
Bit rate mode                            : Constant
Bit rate                                 : 192 kb/s
Channel(s)                               : 2 channels
Channel positions                        : Front: L R
Sampling rate                            : 48.0 kHz
Frame rate                               : 31.250 FPS (1536 spf)
Bit depth                                : 16 bits
Compression mode                         : Lossy
Stream size                              : 129 MiB (1%)
Title                                    : AC3 2.0 192Kbps (Профессиональный, многоголосый, CТС)
Language                                 : Russian
Default                                  : No
Forced                                   : No

Audio #3
ID                                       : 4
Format                                   : AC-3
Format/Info                              : Audio Coding 3
Mode extension                           : CM (complete main)
Format settings, Endianness              : Big
Codec ID                                 : A_AC3
Duration                                 : 1 h 33 min
Bit rate mode                            : Constant
Bit rate                                 : 384 kb/s
Channel(s)                               : 6 channels
Channel positions                        : Front: L C R, Side: L R, LFE
Sampling rate                            : 48.0 kHz
Frame rate                               : 31.250 FPS (1536 spf)
Bit depth                                : 16 bits
Compression mode                         : Lossy
Stream size                              : 257 MiB (3%)
Title                                    : AC3 5.1 384Kbps (Авторский, одноголосый, CDV)
Language                                 : Russian
Default                                  : No
Forced                                   : No

Audio #4
ID                                       : 5
Format                                   : AC-3
Format/Info                              : Audio Coding 3
Mode extension                           : CM (complete main)
Format settings, Endianness              : Big
Codec ID                                 : A_AC3
Duration                                 : 1 h 33 min
Bit rate mode                            : Constant
Bit rate                                 : 192 kb/s
Channel(s)                               : 2 channels
Channel positions                        : Front: L R
Sampling rate                            : 48.0 kHz
Frame rate                               : 31.250 FPS (1536 spf)
Bit depth                                : 16 bits
Compression mode                         : Lossy
Stream size                              : 128 MiB (1%)
Title                                    : AC3 2.0 192Kbps (Авторский, одноголосый, Ю. Живов)
Language                                 : Russian
Default                                  : No
Forced                                   : No

Audio #5
ID                                       : 6
Format                                   : E-AC-3
Format/Info                              : Enhanced Audio Coding 3
Format settings, Endianness              : Big
Codec ID                                 : A_EAC3
Duration                                 : 1 h 33 min
Bit rate mode                            : Constant
Bit rate                                 : 640 kb/s
Channel(s)                               : 6 channels
Channel positions                        : Front: L C R, Side: L R, LFE
Sampling rate                            : 48.0 kHz
Frame rate                               : 187.500 FPS (256 spf)
Compression mode                         : Lossy
Stream size                              : 428 MiB (4%)
Title                                    : E-AC3 5.1 640Kbps (Оригинал)
Language                                 : English
Default                                  : No
Forced                                   : No

Text #1
ID                                       : 7
Format                                   : UTF-8
Codec ID                                 : S_TEXT/UTF8
Codec ID/Info                            : UTF-8 Plain Text
Duration                                 : 1 h 24 min
Bit rate                                 : 0 b/s
Count of elements                        : 9
Stream size                              : 349 Bytes (0%)
Title                                    : Forced
Language                                 : Russian
Default                                  : Yes
Forced                                   : No

Text #2
ID                                       : 8
Format                                   : UTF-8
Codec ID                                 : S_TEXT/UTF8
Codec ID/Info                            : UTF-8 Plain Text
Duration                                 : 1 h 27 min
Bit rate                                 : 126 b/s
Count of elements                        : 1417
Stream size                              : 80.7 KiB (0%)
Title                                    : Full
Language                                 : Ukrainian
Default                                  : No
Forced                                   : No

Text #3
ID                                       : 9
Format                                   : UTF-8
Codec ID                                 : S_TEXT/UTF8
Codec ID/Info                            : UTF-8 Plain Text
Duration                                 : 1 h 27 min
Bit rate                                 : 81 b/s
Count of elements                        : 1471
Stream size                              : 52.5 KiB (0%)
Title                                    : Full, SDH
Language                                 : English
Default                                  : No
Forced                                   : No

Menu
00:00:00.000                             : en:1. Program Start
00:00:21.819                             : en:2. Mars Probe Mission/Main Title
00:01:42.819                             : en:3. KGSC Santa Barbara
00:04:34.819                             : en:4. T Minus 5
00:08:12.819                             : en:5. Crash Landing
00:13:59.819                             : en:6. An Unexpected Visitor
00:21:32.819                             : en:7. A Rude Awakening For Tim
00:27:33.819                             : en:8. Shopping With Uncle Martin
00:34:52.819                             : en:9. Martin Needs Nourishment
00:39:51.819                             : en:10. Home Movies
00:48:34.819                             : en:11. Going to Pieces
00:56:55.819                             : en:12. Don't Send Us to the Shrink
00:58:55.819                             : en:13. The Story of the Century
01:04:15.819                             : en:14. Rummage Sale Bound
01:06:27.819                             : en:15. Down the Drain
01:10:21.819                             : en:16. Captured
01:13:37.819                             : en:17. Zoot to the Rescue
01:17:23.819                             : en:18. The Escape
01:25:33.819                             : en:19. Martin Defects
01:27:47.819                             : en:20. End Credits[/code]


Боцман
Аватара пользователя
Korsar
Помощник Администратора-Корсар
 
 

Награды: 31
За помощь проекту (2) За отличные раздачи и качество (12) За подробное оформление раздач (1) За отличные комментарии (1) Верный Сид (11) За участие в конкурсах/играх (2)
  • Торрент
Для скачивания торрента необходимо зарегистрироваться или войти на трекер.

Вернуться в Зарубежное кино (1991-2000 / HD Video)



Uptime по данным Ping-Admin.Ru - сервиса мониторинга доступности сайтов
Рейтинг@Mail.ru