logo
Международный русскоязычный
торрент-трекер
Menu

Doublon
Поделиться с друзьями: 
Голосуй за Корсар и получи 150 дублонов
Рейтинг торрент трекеров - UpTracker.ru

Мост/ Bron / Broen / Сезон: 1 / Серии: 1-10 из 10 (2011, триллер, криминал, детектив, BDRip)

Сообщение Korsar » 02 дек 2016, 02:29

Мост | Broen | Bron

Год выпуска: 2011
Страна: Швеция, Дания
Жанр: Триллер, криминал, детектив
Продолжительность: 00:57:00
Перевод: Профессиональный (многоголосый закадровый) | Amedia

Режиссёр: Хенрик Георгссон / Henrik Georgsson
В ролях: София Хелин, Ким Бодния, Даг Малмберг, Эмиль Бирк Хартманн, Рафаэль Петтерссон, Кристина Бранден, Сара Боберг, Магнус Креппер, Кристиан Лима де Фариа, Магнус Шмитц, Эллен Хиллингсо, Ларс Симонсен, Йорген Торссон, Оле Бойсен и др.
Описание: На самой середине моста Орезунд, связывающего Швецию с Данией, происходит краткое отключение электроэнергии. Появление света знаменует собой появление незнакомого объекта: тело женщины, обращенное головой к Швеции, ногами к Дании. Чья полиция должна руководить расследованием убийства подброшенной за несколько минут мертвой женщины?

Качество: BDRip
Формат: AVI
Видео: XVID, 720x400 (16:9), 25.000 fps, ~2000 kbps avg, 0.29 bit/pixel
Аудио Rus: AC3 Dolby Digital, 48.0 KHz, 2 channels, 192 Kbps avg
Аудио Dan: AC3 Dolby Digital, 48.0 KHz, 2 channels, 192 Kbps avg
Субтитры: Eng
General
Complete name : E:\Мост (Сезон 1) Amedia\Broen.s01e01.rus.dan.CasStudio.avi
Format : AVI
Format/Info : Audio Video Interleave
File size : 1 019 MiB
Duration : 57mn 31s
Overall bit rate : 2 477 Kbps
Writing application : VirtualDubMod 1.5.10.2 (build 2540/release)
Writing library : VirtualDubMod build 2540/release

Video
ID : 0
Format : MPEG-4 Visual
Format profile : Advanced Simple@L5
Format settings, BVOP : 1
Format settings, QPel : No
Format settings, GMC : No warppoints
Format settings, Matrix : Default (MPEG)
Codec ID : XVID
Codec ID/Hint : XviD
Duration : 57mn 31s
Bit rate : 2 078 Kbps
Width : 720 pixels
Height : 400 pixels
Display aspect ratio : 16:9
Frame rate : 25.000 fps
Color space : YUV
Chroma subsampling : 4:2:0
Bit depth : 8 bits
Scan type : Progressive
Compression mode : Lossy
Bits/(Pixel*Frame) : 0.289
Stream size : 855 MiB (84%)
Writing library : XviD 65

Audio #1
ID : 1
Format : AC-3
Format/Info : Audio Coding 3
Mode extension : CM (complete main)
Format settings, Endianness : Big
Codec ID : 2000
Duration : 57mn 31s
Bit rate mode : Constant
Bit rate : 192 Kbps
Channel(s) : 2 channels
Channel positions : Front: L R
Sampling rate : 48.0 KHz
Frame rate : 31.250 fps (1536 spf)
Compression mode : Lossy
Stream size : 79.0 MiB (8%)
Alignment : Split accross interleaves
Interleave, duration : 40 ms (1.00 video frame)
Interleave, preload duratio : 500 ms

Audio #2
ID : 2
Format : AC-3
Format/Info : Audio Coding 3
Mode extension : CM (complete main)
Format settings, Endianness : Big
Codec ID : 2000
Duration : 57mn 31s
Bit rate mode : Constant
Bit rate : 192 Kbps
Channel(s) : 2 channels
Channel positions : Front: L R
Sampling rate : 48.0 KHz
Frame rate : 31.250 fps (1536 spf)
Compression mode : Lossy
Stream size : 79.0 MiB (8%)
Alignment : Split accross interleaves
Interleave, duration : 40 ms (1.00 video frame)
Interleave, preload duratio : 500 ms

Боцман
Аватара пользователя
Korsar
Помощник Администратора-Корсар
 
 

Награды: 28
За помощь проекту (1) За отличные раздачи и качество (12) За подробное оформление раздач (1) За отличные комментарии (1) Верный Сид (9) За участие в конкурсах (2)
  • Торрент
Для скачивания торрента необходимо зарегистрироваться или войти на трекер.

Вернуться в Зарубежные сериалы



Uptime по данным Ping-Admin.Ru - сервиса мониторинга доступности сайтов
Рейтинг@Mail.ru