logo
Международный русскоязычный
торрент-трекер
Menu
Doublon
Поделиться с друзьями: 
Голосуй за Корсар и получи 400 дублонов
Рейтинг торрент трекеров - UpTracker.ru

Мошенники / Serving Sara (2002, Комедия, мелодрама, WEB-DL 1080p) - KORSAR

Сообщение MZMA » 17 ноя 2018, 20:29

Название: Мошенники / Повестка для Сары / Развод по-американски
Оригинальное название: Serving Sara
Год выпуска: 2002
Выпущено: США, Mandalay Pictures, FTM Productions
Жанр: Комедия, мелодрама
Режиссер: Реджинальд Хадлин
В ролях: Мэттью Перри, Элизабет Хёрли, Винсент Пасторе, Брюс Кэмпбелл, Эми Адамс, Терри Крюс, Джерри Стиллер, Маршалл Белл, Дерек Саузерс, Элейна Хаффман, Алан Эклс, Брент Дункан, Джо Витерелли, Тони Лонго, Мелинда Ренна, Винс Чичери, Эндрю Уилсон, Никки Шилер Зиринг, Корт Янг, Родерик Уотсон, Мария Арита, Джон Роули, Келли Вест, Пол Фудзимото, Тоби Меткалф, Мирелли Тейлор

О фильме: Развод по-американски – это «развод» на деньги. Стоит только вытереть слезы и с помощью ушлого парня из адвокатской конторы «развести» бывшего муженька и его новую пассию на миллион долларов. Все, что для этого нужно – небольшая афера. Гордон и Сара Мур не совсем обычная супружеская пара. Сара – типичная англичанка, Гордон – типичный техасец. Благодаря совместным усилиям их скотоводческое ранчо приносит огромные доходы. Прощаясь с мужем в аэропорту и садясь в самолет, направляющийся в Нью-Йорк, Сара и подумать не могла, какой сюрприз приготовил ей благоверный. В его жизни появилась другая женщина, и он хочет развестись…



Продолжительность: 01:39:42
Перевод: Дублированный, профессиональный двухголосый, авторский
Субтитры: Русские, английские
Навигация по главам: Есть

Качество: WEB-DL 1080p
Видео: MPEG-4 AVC, 10,2 Мбит/сек, 1920x1080, 23,976 кадра/сек
Аудио #1: AC3, 6 ch, 448 Кбит/сек | Русский, профессиональный (полное дублирование) Нева-фильм
Аудио #2: AC3, 6 ch, 448 Кбит/сек | Русский, профессиональный (двухголосый закадровый)
Аудио #3: AC3, 6 ch, 448 Кбит/сек | Русский, авторский (одноголосый закадровый) Владимир Королев
Аудио #4: AC3, 6 ch, 448 Кбит/сек | Английский, оригинал, DVD

Сборка:


Общее
Уникальный идентификатор : 232038358318014425827985427819845052729 (0xAE90F656384E18DFA97B85766752E939)
Полное имя : Мошенники.2002.WEB-DL.1080p.mkv
Формат : Matroska
Версия формата : Version 2
Размер файла : 8,55 Гбайт
Продолжительность : 1 ч. 39 м.
Режим общего битрейта : Переменный
Общий поток : 12,3 Мбит/сек
Дата кодирования : UTC 2018-11-17 17:07:24
Программа кодирования : mkvmerge v5.8.0 ('No Sleep / Pillow') built on Sep 2 2012 15:37:04
Библиотека кодирования : libebml v1.2.3 + libmatroska v1.3.0

Видео
Идентификатор : 1
Формат : AVC
Формат/Информация : Advanced Video Codec
Профиль формата : High@L4
Настройки формата : CABAC / 4 Ref Frames
Параметр CABAC формата : Да
Параметр RefFrames формата : 4 кадра
Идентификатор кодека : V_MPEG4/ISO/AVC
Продолжительность : 1 ч. 39 м.
Вид битрейта : Переменный
Битрейт : 10,2 Мбит/сек
Максимальный битрейт : 15,0 Мбит/сек
Ширина : 1920 пикселей
Высота : 1080 пикселей
Соотношение сторон : 16:9
Режим частоты кадров : Постоянный
Частота кадров : 23,976 (24000/1001) кадра/сек
Цветовое пространство : YUV
Субдискретизация насыщенности : 4:2:0
Битовая глубина : 8 бит
Тип развёртки : Прогрессивная
Бит/(Пиксели*Кадры) : 0.206
Размер потока : 7,13 Гбайт (83%)
Язык : English
По умолчанию : Да
Принудительно : Нет
Цветовой диапазон : Limited
Основные цвета : BT.709
Характеристики трансфера : BT.709
Коэффициенты матрицы : BT.709

Аудио #1
Идентификатор : 2
Формат : AC-3
Формат/Информация : Audio Coding 3
Идентификатор кодека : A_AC3
Продолжительность : 1 ч. 39 м.
Вид битрейта : Постоянный
Битрейт : 448 Кбит/сек
Каналы : 6 каналов
Расположение каналов : Front: L C R, Side: L R, LFE
Частота : 48,0 КГц
Частота кадров : 31,250 кадров/сек (1536 SPF)
Битовая глубина : 16 бит
Метод сжатия : С потерями
Размер потока : 319 Мбайт (4%)
Заголовок : DUB | Невафильм
Язык : Russian
По умолчанию : Да
Принудительно : Нет

Аудио #2
Идентификатор : 3
Формат : AC-3
Формат/Информация : Audio Coding 3
Идентификатор кодека : A_AC3
Продолжительность : 1 ч. 39 м.
Вид битрейта : Постоянный
Битрейт : 448 Кбит/сек
Каналы : 6 каналов
Расположение каналов : Front: L C R, Side: L R, LFE
Частота : 48,0 КГц
Частота кадров : 31,250 кадров/сек (1536 SPF)
Битовая глубина : 16 бит
Метод сжатия : С потерями
Размер потока : 319 Мбайт (4%)
Заголовок : DVO
Язык : Russian
По умолчанию : Нет
Принудительно : Нет

Аудио #3
Идентификатор : 4
Формат : AC-3
Формат/Информация : Audio Coding 3
Идентификатор кодека : A_AC3
Продолжительность : 1 ч. 39 м.
Вид битрейта : Постоянный
Битрейт : 448 Кбит/сек
Каналы : 6 каналов
Расположение каналов : Front: L C R, Side: L R, LFE
Частота : 48,0 КГц
Частота кадров : 31,250 кадров/сек (1536 SPF)
Битовая глубина : 16 бит
Метод сжатия : С потерями
Размер потока : 319 Мбайт (4%)
Заголовок : AVO | В. Королёв
Язык : Russian
По умолчанию : Нет
Принудительно : Нет

Аудио #4
Идентификатор : 5
Формат : AC-3
Формат/Информация : Audio Coding 3
Идентификатор кодека : A_AC3
Продолжительность : 1 ч. 39 м.
Вид битрейта : Постоянный
Битрейт : 448 Кбит/сек
Каналы : 6 каналов
Расположение каналов : Front: L C R, Side: L R, LFE
Частота : 48,0 КГц
Частота кадров : 31,250 кадров/сек (1536 SPF)
Битовая глубина : 16 бит
Метод сжатия : С потерями
Размер потока : 319 Мбайт (4%)
Заголовок : Original
Язык : English
По умолчанию : Нет
Принудительно : Нет

Текст #1
Идентификатор : 6
Формат : UTF-8
Идентификатор кодека : S_TEXT/UTF8
Идентификатор кодека/Информация : UTF-8 Plain Text
Язык : Russian
По умолчанию : Нет
Принудительно : Нет

Текст #2
Идентификатор : 7
Формат : UTF-8
Идентификатор кодека : S_TEXT/UTF8
Идентификатор кодека/Информация : UTF-8 Plain Text
Заголовок : SDH-1
Язык : English
По умолчанию : Нет
Принудительно : Нет

Текст #3
Идентификатор : 8
Формат : UTF-8
Идентификатор кодека : S_TEXT/UTF8
Идентификатор кодека/Информация : UTF-8 Plain Text
Заголовок : SDH-2
Язык : English
По умолчанию : Нет
Принудительно : Нет

Меню
00:00:00.000 : ru:01. Вступление
00:06:39.996 : ru:02. Важное поручение
00:10:10.832 : ru:03. Сара
00:15:33.029 : ru:04. Конкуренты
00:21:29.635 : ru:05. Повестка
00:25:07.978 : ru:06. Контракт
00:36:58.688 : ru:07. Проблемы
00:41:25.204 : ru:08. Встреча в аэропорту
00:47:33.072 : ru:09. Ночь в Техасе
00:56:26.772 : ru:10. "Ветеринар"
01:06:11.106 : ru:11. Похищение
01:10:43.878 : ru:12. Отличный план
01:22:45.849 : ru:13. "Почти накрыли"
01:23:32.146 : ru:14. Идея!
01:30:15.674 : ru:15. Победа
01:32:23.927 : ru:16. Заключение
01:33:29.413 : ru:17. Финальные титры

• Исходник видео WEB-DL Amazon.
• В кадре, временами, присутствует логотип телеканала "STARZ".
КУБКИ

СТАЖ

МЕДАЛИ
Награды:81

За помощь проекту (3) Лучший по количеству кубков (6) За отличные раздачи и качество (45) За подробное оформление раздач (11) Верный Сид (14)

Аватара пользователя
СССР
MZMA
Главный Модератор-Корсар
Раздачи группы KORSAR разрешено перезаливать спустя сутки после публикации
  • Торрент
Для скачивания торрента необходимо зарегистрироваться или войти на трекер.

Вернуться в Зарубежное кино (2001-2010 / HD Video)



Uptime по данным Ping-Admin.Ru - сервиса мониторинга доступности сайтов
Рейтинг@Mail.ru Голосуйте за наш сайт в каталоге Rubo.Ru