logo
Международный русскоязычный
торрент-трекер
Menu
Doublon
Поделиться с друзьями: 
Голосуй за Корсар и получи 500 дублонов
Рейтинг торрент трекеров - UpTracker.ru

Монах с железным кулаком / San de huo shang yu chong mi liu / Iron Fisted Monk (1977, Боевик, драма, комедия, BDRip 1080p) | Remastered | GBR Transfer

Сообщение al1ksandr » 18 окт 2019, 11:03

Название: Монах с железным кулаком
Оригинальное название: San de huo shang yu chong mi liu (Iron Fisted Monk)
Год выпуска: 1977
Жанр: Боевик, драма, комедия
Режиссер: Саммо Хунг
В ролях: Саммо Хунг, Чан Синг, Джеймс Тьен, Фунг Харк-Он, Дин Шек, Ши-Кван Йен, Казанова Вон, Чинг-Йинг Лам, Ма Ву, Фэт Чунг

О фильме: Чун Майлук (в некоторых переводах Хоукер) — ученик монахов Шаолиня. Он изучает кунг-фу, чтобы отомстить за своего дядю, который был убит маньчжурами, контролирующими всю провинцию. Закончив обучение, в надежде преподать урок убийцам, объединяется с мастером кунг-фу монахом Сам Так, который учит группу фабричных рабочих, чтобы они смогли защитить себя. Когда маньчжуры атакуют фабрику и убивают там всех, Майлук и его буддийский друг решают нанести ответный удар...



Выпущено: Гонконг, Media Asia Group
Продолжительность: 01:33:07
Перевод: Авторский (С. Визгунов)

Качество: BDRip 1080p
Видео: MPEG-4 AVC, 17.4 Mбит/с, 1920x804, 23.976 кадр/с
Аудио #1: Русский (AC3, 2 ch, 192 Кбит/с)- авторский (С. Визгунов)
Аудио #2: Английский (AC3, 2 ch, 192 Кбит/с) - дублированный
Аудио #3: Китайский (AC3, 1 ch, 128 Кбит/с) - оригинал
Субтитры: Английские

Полное имя : E:Iron.Fisted.Monk.1977.Remastered.BDRip.1080p.HDReactor.mkv
Формат : Matroska
Версия формата : Version 2
Размер файла : 11,6 Гбайт
Продолжительность : 1 ч. 33 м.
Общий поток : 17,9 Мбит/сек
Название фильма : ~V ad~
Дата кодирования : UTC 2019-10-17 22:03:18
Программа кодирования : mkvmerge v6.5.0 ('Isn't she lovely') built on Oct 20 2013 12:50:05
Библиотека кодирования : libebml v1.3.0 + libmatroska v1.4.1
Обложка : Yes
Attachments : cover.jpg

Видео
Идентификатор : 1
Формат : AVC
Формат/Информация : Advanced Video Codec
Профиль формата : High@L4.1
Настройки формата : CABAC / 5 Ref Frames
Параметр CABAC формата : Да
Параметр RefFrames формата : 5 кадров
Идентификатор кодека : V_MPEG4/ISO/AVC
Продолжительность : 1 ч. 33 м.
Битрейт : 17,4 Мбит/сек
Ширина : 1920 пикселей
Высота : 804 пикселя
Соотношение сторон : 2,40:1
Режим частоты кадров : Постоянный
Частота кадров : 23,976 (24000/1001) кадра/сек
Цветовое пространство : YUV
Субдискретизация насыщенности : 4:2:0
Битовая глубина : 8 бит
Тип развёртки : Прогрессивная
Бит/(Пиксели*Кадры) : 0.470
Размер потока : 11,1 Гбайт (95%)
Заголовок : ~V~
Библиотека кодирования : x264 core 158 r2984 3759fcb
Настройки программы : cabac=1 / ref=5 / deblock=1:-3:-2 / analyse=0x3:0x133 / me=umh / subme=11 / psy=1 / psy_rd=0.95:0.00 / mixed_ref=1 / me_range=32 / chroma_me=1 / trellis=2 / 8x8dct=1 / cqm=0 / deadzone=21,11 / fast_pskip=0 / chroma_qp_offset=-2 / threads=12 / lookahead_threads=1 / sliced_threads=0 / nr=0 / decimate=0 / interlaced=0 / bluray_compat=0 / constrained_intra=0 / bframes=9 / b_pyramid=2 / b_adapt=2 / b_bias=0 / direct=3 / weightb=1 / open_gop=0 / weightp=2 / keyint=240 / keyint_min=23 / scenecut=40 / intra_refresh=0 / rc=2pass / mbtree=0 / bitrate=17393 / ratetol=1.0 / qcomp=0.65 / qpmin=0 / qpmax=69 / qpstep=4 / cplxblur=20.0 / qblur=0.5 / ip_ratio=1.28 / pb_ratio=1.24 / aq=3:1.00
Язык : Английский
Default : Да
Forced : Нет

Аудио #1
Идентификатор : 2
Формат : AC-3
Формат/Информация : Audio Coding 3
Коммерческое название : Dolby Digital
Идентификатор кодека : A_AC3
Продолжительность : 1 ч. 33 м.
Вид битрейта : Постоянный
Битрейт : 192 Кбит/сек
Каналы : 2 канала
Channel layout : L R
Частота : 48,0 КГц
Частота кадров : 31,250 кадров/сек (1536 SPF)
Битовая глубина : 16 бит
Метод сжатия : С потерями
Размер потока : 128 Мбайт (1%)
Заголовок : AVO [С.Визгунов]
Язык : Русский
Service Kind : Complete Main
Default : Да
Forced : Нет

Аудио #2
Идентификатор : 3
Формат : AC-3
Формат/Информация : Audio Coding 3
Коммерческое название : Dolby Digital
Идентификатор кодека : A_AC3
Продолжительность : 1 ч. 33 м.
Вид битрейта : Постоянный
Битрейт : 192 Кбит/сек
Каналы : 2 канала
Channel layout : L R
Частота : 48,0 КГц
Частота кадров : 31,250 кадров/сек (1536 SPF)
Битовая глубина : 16 бит
Метод сжатия : С потерями
Размер потока : 128 Мбайт (1%)
Заголовок : Dub
Язык : Английский
Service Kind : Complete Main
Default : Нет
Forced : Нет

Аудио #3
Идентификатор : 4
Формат : AC-3
Формат/Информация : Audio Coding 3
Коммерческое название : Dolby Digital
Идентификатор кодека : A_AC3
Продолжительность : 1 ч. 33 м.
Вид битрейта : Постоянный
Битрейт : 128 Кбит/сек
Каналы : 1 канал
Channel layout : C
Частота : 48,0 КГц
Частота кадров : 31,250 кадров/сек (1536 SPF)
Битовая глубина : 16 бит
Метод сжатия : С потерями
Размер потока : 85,3 Мбайт (1%)
Заголовок : Original
Язык : Китайский
Service Kind : Complete Main
Default : Нет
Forced : Нет

Текст
Идентификатор : 5
Формат : UTF-8
Идентификатор кодека : S_TEXT/UTF8
Идентификатор кодека/Информация : UTF-8 Plain Text
Язык : Английский
Default : Нет
Forced : Нет

Меню
00:00:00.000 : en:01
00:08:32.470 : en:02
00:18:33.695 : en:03
00:23:18.355 : en:04
00:29:15.879 : en:05
00:40:10.616 : en:06
00:46:08.223 : en:07
00:56:00.732 : en:08
01:01:02.492 : en:09
01:10:39.652 : en:10
01:16:44.850 : en:11
01:26:48.203 : en:12




Релиз от:
КУБКИ

СТАЖ

МЕДАЛИ
Награды:70

За активную помощь проекту (3) Лучший по количеству кубков (15) За отличные раздачи и качество (6) За отличные комментарии (13) Почётный форумчанин (28) Верный Сид (1) За участие в конкурсах/играх (2)

Аватара пользователя
СССР
al1ksandr
Помощник Администратора-Корсар
  • Торрент
Для скачивания торрента необходимо зарегистрироваться или войти на трекер.

Вернуться в Классика зарубежного кино (фильмы до 1980 года / HD Video)



Uptime по данным Ping-Admin.Ru - сервиса мониторинга доступности сайтов
Рейтинг@Mail.ru