logo
Международный русскоязычный
торрент-трекер
Menu
Поделиться с друзьями: 
Голосуй за Корсар и получи 500 дублонов
Рейтинг торрент трекеров - UpTracker.ru

Молот (2016, драма, спорт, BDRip 1080p) | GER Transfer | Лицензия

Сообщение Korsar » 27 май 2017, 19:08

Название: Молот
Год выхода: 2016
Жанр: Драма, спорт
Режиссер: Нурбек Эген
В ролях: Алексей Чадов, Антон Шагин, Оксана Акиньшина, Сергей Чирков, Игорь Скляр, Евгений Евдокимов, Олег Посполитак, Александр Симкин, Никита Панфилов, Дмитрий Пеньков

О фильме: В шаге от чемпионского титула карьеру «Молота» перечеркивает страшная авария. Отныне любой поединок может стать для него последним. Но когда под угрозой оказывается его любовь, он доказывает, что «Молотом» его прозвали не только за сокрушительный удар. Настоящий боец на ринге и в жизни, он продолжает борьбу даже в центре паутины лжи и предательства. Рискуя всем, он идет напролом, чтобы спасти себя и свою возлюбленную.



Страна: Россия
Студия: Всемирные Русские Студии
Продолжительность: 01:50:26
Перевод: Не требуется | Лицензия BD GER

Качество: BDRip 1080p
Видео: 1920x804, 8775 Kbps, 24.000 fps
Аудио 1: AC3, 6 ch, 640 kbps - Русский
Аудио 2: AC3, 6 ch, 640 kbps - Английский
Субтитры: Нет

x264 [info]: frame I:1146 Avg QP:13.27 size:158871
x264 [info]: frame P:53998 Avg QP:16.31 size: 70676
x264 [info]: frame B:103894 Avg QP:17.31 size: 31450

Общее
Уникальный идентификатор : 246292714815850415108070640085266066661 (0xB94A405F57F34D13B47BAD5CB2BFECE5)
Полное имя : Versus.2016.BDRip.1080p.mkv
Формат : Matroska
Версия формата : Version 2
Размер файла : 7,76 Гбайт
Продолжительность : 1 ч. 50 м.
Общий поток : 10,1 Мбит/сек
Название фильма : Молот_(Versus).2016.BDRip.1080p
Дата кодирования : UTC 2017-05-27 08:44:20
Программа кодирования : mkvmerge v4.0.0 ('The Stars were mine') сборка от Jun 6 2010 16:18:42
Библиотека кодирования : libebml v1.0.0 + libmatroska v1.0.0

Видео
Идентификатор : 1
Формат : AVC
Формат/Информация : Advanced Video Codec
Профиль формата : High@L4.1
Параметр CABAC формата : Да
Параметр ReFrames формата : 5 кадров
Идентификатор кодека : V_MPEG4/ISO/AVC
Продолжительность : 1 ч. 50 м.
Битрейт : 8775 Кбит/сек
Ширина : 1920 пикселей
Высота : 804 пикселя
Соотношение сторон : 2,40:1
Режим частоты кадров : Постоянный
Частота кадров : 24,000 кадра/сек
Цветовое пространство : YUV
Субдискретизация насыщенности : 4:2:0
Битовая глубина : 8 бит
Тип развёртки : Прогрессивная
Бит/(Пиксели*Кадры) : 0.237
Размер потока : 6,61 Гбайт (85%)
Заголовок : rip by -=walledol=-
Библиотека кодирования : x264 core 148 r2744 b97ae06
Настройки программы : cabac=1 / ref=5 / deblock=1:-3:-3 / analyse=0x3:0x133 / me=umh / subme=11 / psy=1 / psy_rd=1.00:0.00 / mixed_ref=1 / me_range=32 / chroma_me=1 / trellis=2 / 8x8dct=1 / cqm=0 / deadzone=21,11 / fast_pskip=0 / chroma_qp_offset=-2 / threads=6 / lookahead_threads=1 / sliced_threads=0 / nr=0 / decimate=1 / interlaced=0 / bluray_compat=0 / constrained_intra=0 / bframes=8 / b_pyramid=2 / b_adapt=2 / b_bias=0 / direct=3 / weightb=1 / open_gop=0 / weightp=2 / keyint=240 / keyint_min=24 / scenecut=40 / intra_refresh=0 / rc=2pass / mbtree=0 / bitrate=8775 / ratetol=1.0 / qcomp=0.60 / qpmin=0 / qpmax=69 / qpstep=4 / cplxblur=20.0 / qblur=0.5 / ip_ratio=1.40 / pb_ratio=1.30 / aq=3:0.95
Язык : Russian
Default : Нет
Forced : Нет

Аудио #1
Идентификатор : 2
Формат : AC-3
Формат/Информация : Audio Coding 3
Параметр Endianness формата : Big
Идентификатор кодека : A_AC3
Продолжительность : 1 ч. 50 м.
Вид битрейта : Постоянный
Битрейт : 640 Кбит/сек
Каналы : 6 каналов
Расположение каналов : Front: L C R, Side: L R, LFE
Частота : 48,0 КГц
Частота кадров : 31,250 кадров/сек (1536 spf)
Битовая глубина : 16 бит
Метод сжатия : С потерями
Размер потока : 506 Мбайт (6%)
Язык : Russian
ServiceKind : Complete Main
Default : Да
Forced : Нет

Аудио #2
Идентификатор : 3
Формат : AC-3
Формат/Информация : Audio Coding 3
Параметр Endianness формата : Big
Идентификатор кодека : A_AC3
Продолжительность : 1 ч. 50 м.
Вид битрейта : Постоянный
Битрейт : 640 Кбит/сек
Каналы : 6 каналов
Расположение каналов : Front: L C R, Side: L R, LFE
Частота : 48,0 КГц
Частота кадров : 31,250 кадров/сек (1536 spf)
Битовая глубина : 16 бит
Метод сжатия : С потерями
Размер потока : 506 Мбайт (6%)
Язык : English
ServiceKind : Complete Main
Default : Нет
Forced : Нет

Меню
00:00:00.000 : ru:Chapter 1
00:10:46.625 : ru:Chapter 2
00:27:45.333 : ru:Chapter 3
00:41:35.750 : ru:Chapter 4
00:56:02.750 : ru:Chapter 5
01:09:31.666 : ru:Chapter 6
01:22:01.000 : ru:Chapter 7
01:36:06.041 : ru:Chapter 8
01:50:26.583 : ru:Chapter 9
КУБКИ

СТАЖ

МЕДАЛИ
Награды:17

Пожизненный VIP+ (1) За активную помощь проекту (1) Лучший по количеству кубков (1) За отличные раздачи и качество (6) За отличные комментарии (4) Почётный форумчанин (2) Верный Сид (2)

Аватара пользователя
СССР
Korsar
Заслуженный Корсар-Вип+
  • Торрент
Для скачивания торрента необходимо зарегистрироваться или войти на трекер.

Вернуться в Наше современное кино (HD Video)



Uptime по данным Ping-Admin.Ru - сервиса мониторинга доступности сайтов
Рейтинг@Mail.ru