logo
Международный русскоязычный
торрент-трекер
Menu
"Бунт на корабле", за скачанные торрент-файлы дублоны не снимаются. Возможность оплачена пользователем glazik9090.
Doublon
Поделиться с друзьями: 
Голосуй за Корсар и получи 500 дублонов
Рейтинг торрент трекеров - UpTracker.ru

Молчание / The Silence (2019, ужасы, BDRip 720p) | SDI Media

Сообщение al1ksandr » 08 ноя 2019, 12:33

Название: Молчание
Оригинальное название: The Silence
Год выхода: 2019
Жанр: Ужасы, фантастика, триллер, драма
Режиссер: Джон Р. Леонетти
В ролях: Стэнли Туччи, Кирнан Шипка, Миранда Отто, Джон Корбетт, Сара Эбботт, Кейт Корбетт, Кайл Харрисон, Брейткопф, Демпси Брайк, Билли Маклеллан

О фильме: Спелеологи вскрыли древнюю пещеру в Пенсильвании и выпустили на свободу агрессивных кровожадных существ, больше всего похожих на летучих мышей. Твари слепы, ориентируются только на звук, быстро перемещаются на кожистых крыльях и довольно шустро размножаются, поэтому вскоре распространяются по Северной Америке, неся хаос, смерть и уничтожая цивилизацию.



Страна: Германия
Студия: Constantin Film, EMJAG Productions
Продолжительность: 01:30:49
Перевод: Дублированный (SDI Media)

Качество: BDRip 720p
Видео: AVC/H.264, 1280x536, ~6255 Кbps, 23,976 fps
Звук:
Аудио 1: AC3, 6 ch, 640 Kbps - Русский
Аудио 2: DTS, 6 ch, 1509 Kbps - Английский
Субтитры: Русский (Форс., Полные), Английский (Full, SDH)

Общее
Уникальный идентификатор : 2362264586509613349083804012486864230 (0x1C6F4A2E1A158BB267A3CC1A07C2D66)
Полное имя : The Silence.2019.BDRip.720p.W.mkv
Формат : Matroska
Версия формата : Version 4
Размер файла : 5,33 Гбайт
Продолжительность : 1 ч. 30 м.
Общий поток : 8406 Кбит/сек
Название фильма : The Silence.2019.BDRip.720p.W
Дата кодирования : UTC 2019-11-08 07:03:49
Программа кодирования : mkvmerge v23.0.0 ('The Bride Said No') 64-bit
Библиотека кодирования : libebml v1.3.6 + libmatroska v1.4.9

Видео
Идентификатор : 1
Формат : AVC
Формат/Информация : Advanced Video Codec
Профиль формата : High@L4.1
Настройки формата : CABAC / 12 Ref Frames
Параметр CABAC формата : Да
Параметр RefFrames формата : 12 кадров
Идентификатор кодека : V_MPEG4/ISO/AVC
Продолжительность : 1 ч. 30 м.
Битрейт : 6255 Кбит/сек
Ширина : 1280 пикселей
Высота : 536 пикселей
Соотношение сторон : 2,40:1
Режим частоты кадров : Постоянный
Частота кадров : 23,976 (23976/1000) кадра/сек
Цветовое пространство : YUV
Субдискретизация насыщенности : 4:2:0
Битовая глубина : 8 бит
Тип развёртки : Прогрессивная
Бит/(Пиксели*Кадры) : 0.380
Размер потока : 3,97 Гбайт (74%)
Заголовок : rip by -=walledol=-
Библиотека кодирования : x264 core 157 r2945 72db437
Настройки программы : cabac=1 / ref=12 / deblock=1:-3:-3 / analyse=0x3:0x133 / me=umh / subme=11 / psy=1 / psy_rd=1.00:0.00 / mixed_ref=1 / me_range=32 / chroma_me=1 / trellis=2 / 8x8dct=1 / cqm=0 / deadzone=21,11 / fast_pskip=0 / chroma_qp_offset=-2 / threads=12 / lookahead_threads=2 / sliced_threads=0 / nr=0 / decimate=1 / interlaced=0 / bluray_compat=0 / constrained_intra=0 / bframes=8 / b_pyramid=2 / b_adapt=2 / b_bias=0 / direct=3 / weightb=1 / open_gop=0 / weightp=2 / keyint=240 / keyint_min=23 / scenecut=40 / intra_refresh=0 / rc_lookahead=60 / rc=2pass / mbtree=0 / bitrate=6255 / ratetol=1.0 / qcomp=0.60 / qpmin=0 / qpmax=69 / qpstep=4 / cplxblur=20.0 / qblur=0.5 / vbv_maxrate=30000 / vbv_bufsize=33000 / nal_hrd=none / filler=0 / ip_ratio=1.40 / pb_ratio=1.30 / aq=3:0.80 / zones=121855,130640,q=40
Язык : English
Default : Да
Forced : Нет

Аудио #1
Идентификатор : 2
Формат : AC-3
Формат/Информация : Audio Coding 3
Коммерческое название : Dolby Digital
Идентификатор кодека : A_AC3
Продолжительность : 1 ч. 30 м.
Вид битрейта : Постоянный
Битрейт : 640 Кбит/сек
Каналы : 6 каналов
ChannelLayout : L R C LFE Ls Rs
Частота : 48,0 КГц
Частота кадров : 31,250 кадров/сек (1536 SPF)
Метод сжатия : С потерями
Размер потока : 416 Мбайт (8%)
Заголовок : DUB (SDI Media)
Язык : Russian
ServiceKind : Complete Main
Default : Да
Forced : Нет

Аудио #2
Идентификатор : 3
Формат : DTS
Формат/Информация : Digital Theater Systems
Идентификатор кодека : A_DTS
Продолжительность : 1 ч. 30 м.
Вид битрейта : Постоянный
Битрейт : 1509 Кбит/сек
Каналы : 6 каналов
ChannelLayout : C L R Ls Rs LFE
Частота : 48,0 КГц
Частота кадров : 93,750 кадра/сек (512 SPF)
Битовая глубина : 24 бит
Метод сжатия : С потерями
Размер потока : 980 Мбайт (18%)
Язык : English
Default : Нет
Forced : Нет

Текст #1
Идентификатор : 4
Формат : UTF-8
Идентификатор кодека : S_TEXT/UTF8
Идентификатор кодека/Информация : UTF-8 Plain Text
Продолжительность : 1 ч. 23 м.
Битрейт : 5 бит/сек
ElementCount : 84
Размер потока : 3,55 Кбайт (0%)
Заголовок : Forced
Язык : Russian
Default : Да
Forced : Нет

Текст #2
Идентификатор : 5
Формат : UTF-8
Идентификатор кодека : S_TEXT/UTF8
Идентификатор кодека/Информация : UTF-8 Plain Text
Продолжительность : 1 ч. 24 м.
Битрейт : 39 бит/сек
ElementCount : 601
Размер потока : 24,5 Кбайт (0%)
Заголовок : Full
Язык : Russian
Default : Нет
Forced : Нет

Текст #3
Идентификатор : 6
Формат : UTF-8
Идентификатор кодека : S_TEXT/UTF8
Идентификатор кодека/Информация : UTF-8 Plain Text
Продолжительность : 46 м. 10 с.
Битрейт : 3 бит/сек
ElementCount : 61
Размер потока : 1,18 Кбайт (0%)
Заголовок : Forced
Язык : English
Default : Нет
Forced : Нет

Текст #4
Идентификатор : 7
Формат : UTF-8
Идентификатор кодека : S_TEXT/UTF8
Идентификатор кодека/Информация : UTF-8 Plain Text
Продолжительность : 1 ч. 23 м.
Битрейт : 26 бит/сек
ElementCount : 592
Размер потока : 15,9 Кбайт (0%)
Заголовок : Full
Язык : English
Default : Нет
Forced : Нет

Текст #5
Идентификатор : 8
Формат : UTF-8
Идентификатор кодека : S_TEXT/UTF8
Идентификатор кодека/Информация : UTF-8 Plain Text
Продолжительность : 1 ч. 24 м.
Битрейт : 41 бит/сек
ElementCount : 923
Размер потока : 25,5 Кбайт (0%)
Заголовок : SDH
Язык : English
Default : Нет
Forced : Нет

Меню
00:00:00.000 : en:Chapter 1
00:07:22.775 : en:Chapter 2
00:12:34.211 : en:Chapter 3
00:19:55.777 : en:Chapter 4
00:25:23.730 : en:Chapter 5
00:31:16.666 : en:Chapter 6
00:36:58.216 : en:Chapter 7
00:44:31.293 : en:Chapter 8
00:50:23.437 : en:Chapter 9
00:58:07.942 : en:Chapter 10
01:03:35.603 : en:Chapter 11
01:07:56.655 : en:Chapter 12
01:15:00.287 : en:Chapter 13
01:20:15.560 : en:Chapter 14
01:24:45.205 : en:Chapter 15

КУБКИ

СТАЖ

МЕДАЛИ
Награды:68

За активную помощь проекту (3) Лучший по количеству кубков (15) За отличные раздачи и качество (5) За отличные комментарии (13) Почётный форумчанин (27) Верный Сид (1) За участие в конкурсах/играх (2)

Аватара пользователя
СССР
al1ksandr
Опытный Модератор-Корсар
  • Торрент
Для скачивания торрента необходимо зарегистрироваться или войти на трекер.

Вернуться в Зарубежное кино (2011-2019 / HD Video)



Uptime по данным Ping-Admin.Ru - сервиса мониторинга доступности сайтов
Рейтинг@Mail.ru