logo
Международный русскоязычный
торрент-трекер
Menu
"Бунт на корабле", за скачанные торрент-файлы дублоны не снимаются. Возможность оплачена пользователем glazik9090.
Doublon
Поделиться с друзьями: 
Голосуй за Корсар и получи 500 дублонов
Рейтинг торрент трекеров - UpTracker.ru

Молчание доктора Ивенса (1973, Фантастика, SATRip-AVC) - KORSAR

Сообщение Cthulhu » 09 ноя 2019, 00:54

Молчание доктора Ивенса

Жанр: Фантастика
Год выпуска: 1973
Режиссер: Будимир Метальников
В ролях: Сергей Бондарчук, Жанна Болотова, Ирина Скобцева, Леонид Оболенский, Игорь Кузнецов, Борис Романов, Ольгерт Кродерс, Наталия Дрожжина, Инна Кара-Моско, Гунар Плаценс, Пранас Пяулокас, Борис Химичев, Валерий Хлевинский, Владимир Скомаровский, Алеша Крюков

Описание: Над Атлантикой терпит катастрофу самолет. Однако несколько пассажиров таинственным образом спасаются. В их числе известный ученый Мартин Ивенс, занимающийся проблемой продления жизни человека. Именно он становится избранником инопланетян, вступающих в контакт с земной цивилизацией. Поставленный перед проблемой нравственного выбора, Ивенс отказывается от продолжения своих исследований...



Страна: СССР
Производство: Мосфильм
Продолжительность: 01:16:17
Перевод: Не требуется

Формат: MKV
Качество: SATRip-AVC
Видео: MPEG-4 AVC, 698x346@745x346, 25 fps, 1572 Кбит/с
Аудио: Русский, MPEG Audio, 2 ch, 192 Кбит/с
Cубтитры: нет
Навигация по главам: нет

x264 [info]: frame I:674 Avg QP:15.68 size: 37569
x264 [info]: frame P:28700 Avg QP:17.24 size: 17865
x264 [info]: frame B:85059 Avg QP:19.43 size: 4249
x264 [info]: consecutive B-frames: 3.6% 4.9% 13.0% 19.5% 23.0% 30.9% 3.8% 0.9% 0.2% 0.1% 0.0%

General
Unique ID : 114951348167553350561743910971963462587 (0x567AD309263922C7C524A20FBE49D3BB)
Complete name : S:\FILMS\Молчание доктора Ивенса (1973) SATRip-AVC - KORSAR.mkv
Format : Matroska
Format version : Version 4 / Version 2
File size : 964 MiB
Duration : 1 h 16 min
Overall bit rate : 1 766 kb/s
Movie name : Молчание доктора Ивенса (1973)_rip_by_Cthulhu
Encoded date : UTC 2019-11-08 21:15:09
Writing application : mkvmerge v37.0.0 ('Leave It') 64-bit
Writing library : libebml v1.3.9 + libmatroska v1.5.2
Cover : Yes
Attachments : cover11.jpg

Video
ID : 1
Format : AVC
Format/Info : Advanced Video Codec
Format profile : High@L4.1
Format settings : CABAC / 15 Ref Frames
Format settings, CABAC : Yes
Format settings, ReFrames : 15 frames
Codec ID : V_MPEG4/ISO/AVC
Duration : 1 h 16 min
Bit rate : 1 572 kb/s
Width : 698 pixels
Height : 346 pixels
Display aspect ratio : 2.2:1
Original display aspect rat : 2.2:1
Frame rate mode : Constant
Frame rate : 25.000 FPS
Color space : YUV
Chroma subsampling : 4:2:0
Bit depth : 8 bits
Scan type : Progressive
Bits/(Pixel*Frame) : 0.260
Stream size : 858 MiB (89%)
Writing library : x264 core 152 r2851kMod ba24899
Encoding settings : cabac=1 / ref=15 / deblock=1:-1:-1 / analyse=0x3:0x133 / me=umh / subme=11 / psy=1 / fade_compensate=0.00 / psy_rd=1.02:0.05 / mixed_ref=1 / me_range=48 / chroma_me=1 / trellis=2 / 8x8dct=1 / cqm=0 / deadzone=21,11 / fast_pskip=0 / chroma_qp_offset=-3 / threads=11 / lookahead_threads=2 / sliced_threads=0 / nr=0 / decimate=1 / interlaced=0 / bluray_compat=0 / constrained_intra=0 / bframes=10 / b_pyramid=2 / b_adapt=2 / b_bias=0 / direct=3 / weightb=1 / open_gop=0 / weightp=2 / keyint=250 / keyint_min=25 / scenecut=40 / intra_refresh=0 / rc_lookahead=60 / rc=crf / mbtree=0 / crf=17.0000 / qcomp=0.60 / qpmin=0 / qpmax=39 / qpstep=4 / vbv_maxrate=50000 / vbv_bufsize=62500 / crf_max=0.0 / nal_hrd=none / filler=0 / ip_ratio=1.40 / pb_ratio=1.30 / aq=3:1.00
Language : Russian
Default : Yes
Forced : No
Color range : Limited
Color primaries : BT.601 PAL
Transfer characteristics : BT.470 System B/G
Matrix coefficients : BT.470 System B/G

Audio
ID : 2
Format : MPEG Audio
Format version : Version 1
Format profile : Layer 2
Codec ID : A_MPEG/L2
Codec ID/Hint : MP2
Duration : 1 h 16 min
Bit rate mode : Constant
Bit rate : 192 kb/s
Channel(s) : 2 channels
Sampling rate : 48.0 kHz
Frame rate : 41.667 FPS (1152 SPF)
Compression mode : Lossy
Stream size : 105 MiB (11%)
Language : Russian
Default : Yes
Forced : No

Просьба отключить блокировщики рекламы на странице скриншотов по адресу: http://3.lostpic.net/, этим Вы поможете существованию проекта. Заранее спасибо!
КУБКИ

СТАЖ

МЕДАЛИ
Награды:85

За активную помощь проекту (16) Лучший по количеству кубков (1) За отличные раздачи и качество (39) За отличные комментарии (5) Почётный форумчанин (5) Верный Сид (17)

Аватара пользователя
СССР
Cthulhu
Главный Модератор-Корсар
Раздачи группы KORSAR перезаливать запрещено, кроме групп партнёров и самой группы, но спустя 14 дней после публикации и с обязательным добавлением банера
  • Торрент
Для скачивания торрента необходимо зарегистрироваться или войти на трекер.

Сообщение verybigpapa » 09 ноя 2019, 09:16

Уважаемый Cthulhu, большое спасибо. :hi: :respect:
Улыбайтесь, господа! Улыбайтесь!
КУБКИ

СТАЖ

МЕДАЛИ
Награды:63

За активную помощь проекту (24) Лучший по количеству кубков (9) За отличные комментарии (10) Почётный форумчанин (2) Верный Сид (18)

Аватара пользователя
СССР
verybigpapa
Заслуженный Корсар-Вип


Вернуться в Кино времён СССР



Uptime по данным Ping-Admin.Ru - сервиса мониторинга доступности сайтов
Рейтинг@Mail.ru