logo
Международный русскоязычный
торрент-трекер
Menu
Поделиться с друзьями: 
Голосуй за Корсар и получи 500 дублонов
Рейтинг торрент трекеров - UpTracker.ru

Мне двадцать лет (1964, Драма, WEBRip 1080p)

Сообщение al1ksandr » 29 июн 2020, 17:10

Название: Мне двадцать лет / Застава Ильича
Год выхода: 1964
Жанр: Драма
Режиссер: Марлен Хуциев
В ролях: Геннадий Некрасов, Станислав Любшин, Николай Губенко, Валентин Попов, Олег Видов, Сергей Десницкий, Вадим Захарченко, Марианна Вертинская, Родион Нахапетов, Лев Прыгунов, Светлана Светличная, Тамара Совчи, Светлана Старикова, Андрей Тарковский, Андрей Михалков-Кончаловский, Александр Митта, Ольга Гобзева, Лев Золотухин

О фильме: Фильм рассказывает о проблемах молодежи, ее месте в жизни, о взаимопонимании поколений и незыблемости нравственных ценностей и о том, что ничего не страшно, когда рядом с тобой друзья, когда есть во что верить, чьей памятью клясться.



Страна: СССР
Продолжительность: 02:44:40
Перевод: не требуется

Качество: WEBRip 1080p
Видео: AVC/H.264, 1408x1080 (4:3), ~5000 Kbps
Аудио 1: AC3, 6 ch, 448 Kbps - русский
Аудио 2: AAC, 2 ch, 245 Kbps - русский

Общее
Формат : Matroska
Версия формата : Version 4
Размер файла : 6,52 Гбайт
Продолжительность : 2 ч. 44 м.
Общий поток : 5 668 Кбит/сек
Название фильма : Мне двадцать лет.1964.by.Alexandr
Дата кодирования : UTC 2020-06-29 05:05:41
Программа кодирования : mkvmerge v48.0.0 ('Fortress Around Your Heart') 32-bit
Библиотека кодирования : libebml v1.4.0 + libmatroska v1.6.0

Видео
Идентификатор : 1
Формат : AVC
Формат/Информация : Advanced Video Codec
Профиль формата : High@L4
Настройки формата : CABAC / 5 Ref Frames
Параметр CABAC формата : Да
Параметр RefFrames формата : 5 кадров
Идентификатор кодека : V_MPEG4/ISO/AVC
Продолжительность : 2 ч. 44 м.
Битрейт : 5 000 Кбит/сек
Ширина : 1 408 пикселей
Высота : 1 080 пикселей
Соотношение сторон : 4:3
Режим частоты кадров : Постоянный
Частота кадров : 25,000 кадров/сек
Цветовое пространство : YUV
Субдискретизация насыщенности : 4:2:0
Битовая глубина : 8 бит
Тип развёртки : Прогрессивная
Бит/(Пиксели*Кадры) : 0.132
Размер потока : 5,72 Гбайт (88%)
Библиотека кодирования : x264 core 148 r2721 72d53ab
Настройки программы : cabac=1 / ref=5 / deblock=1:0:0 / analyse=0x3:0x133 / me=umh / subme=10 / psy=1 / psy_rd=1.00:0.00 / mixed_ref=1 / me_range=24 / chroma_me=1 / trellis=2 / 8x8dct=1 / cqm=0 / deadzone=21,11 / fast_pskip=1 / chroma_qp_offset=-2 / threads=34 / lookahead_threads=5 / sliced_threads=0 / nr=0 / decimate=1 / interlaced=0 / bluray_compat=0 / constrained_intra=0 / bframes=8 / b_pyramid=2 / b_adapt=2 / b_bias=0 / direct=3 / weightb=1 / open_gop=0 / weightp=2 / keyint=100 / keyint_min=50 / scenecut=40 / intra_refresh=0 / rc_lookahead=60 / rc=2pass / mbtree=1 / bitrate=5000 / ratetol=1.0 / qcomp=0.60 / qpmin=0 / qpmax=69 / qpstep=4 / cplxblur=20.0 / qblur=0.5 / vbv_maxrate=5500 / vbv_bufsize=2500 / nal_hrd=none / filler=0 / ip_ratio=1.40 / aq=1:1.00
Default : Да
Forced : Нет

Аудио #1
Идентификатор : 2
Формат : AC-3
Формат/Информация : Audio Coding 3
Коммерческое название : Dolby Digital
Идентификатор кодека : A_AC3
Продолжительность : 2 ч. 44 м.
Вид битрейта : Постоянный
Битрейт : 448 Кбит/сек
Каналы : 6 каналов
Channel layout : L R C LFE Ls Rs
Частота : 48,0 КГц
Частота кадров : 31,250 кадров/сек (1536 SPF)
Метод сжатия : С потерями
Задержка видео : -80 мс.
Размер потока : 528 Мбайт (8%)
Язык : Russian
Service kind : Complete Main
Default : Да
Forced : Нет

Аудио #2
Идентификатор : 3
Формат : AAC LC
Формат/Информация : Advanced Audio Codec Low Complexity
Идентификатор кодека : A_AAC-2
Продолжительность : 2 ч. 44 м.
Битрейт : 245 Кбит/сек
Каналы : 2 канала
Channel layout : L R
Частота : 48,0 КГц
Частота кадров : 46,875 кадров/сек (1024 SPF)
Метод сжатия : С потерями
Задержка видео : -80 мс.
Размер потока : 288 Мбайт (4%)
Язык : Russian
Default : Нет
Forced : Нет

Текст
Идентификатор : 4
Формат : UTF-8
Идентификатор кодека : S_TEXT/UTF8
Идентификатор кодека/Информация : UTF-8 Plain Text
Продолжительность : 2 ч. 37 м.
Битрейт : 86 бит/сек
Count of elements : 1872
Размер потока : 100 Кбайт (0%)
Язык : Russian
Default : Нет
Forced : Нет


Релиз от: Alexandr
КУБКИ

СТАЖ

МЕДАЛИ
Награды:56

За активную помощь проекту (4) Лучший по количеству кубков (16) За отличные раздачи и качество (13) За подробное оформление раздач (1) За отличные комментарии (15) Почётный форумчанин (3) Верный Сид (1) За участие в конкурсах/играх (2)

Аватара пользователя
СССР
al1ksandr
Главный Модератор-Корсар
  • Торрент
Для скачивания торрента необходимо зарегистрироваться или войти на трекер.

Сообщение kwazar312 » 29 июн 2020, 19:38

Мне двадцать лет или пора что-то менять...
Очередная кинолента из творчества великого классика советского кино Марлена Хуциева.Теперь я понимаю, чем же отличаются фильмы Хуциева от стандартных фильмов военной тематики или же простых поверхностных мелодрам советской индустрии кино. Они глубже и умнее. Сюжет здесь выходит на второй план и является лишь фоном. За довольно простым сюжетом скрывается внутренний подтекст.
Хуциев пытается понять и осмыслить послевоенное поколение, сравнивая его с более старшим поколением. Вечные проблемы отцов и детей. Как говорит отец Сергея (главного героя фильма) «Моя совесть чиста», что означает - миссия того поколения выполнена и они доживают свой век, кто-то отдав жизнь за это, кто-то оставшись калекой. Они ведь нашли свою суть — выиграть войну. А вот какие задачи стоят перед поколением 60-ых ?
Ведь у поколения 60-ых совсем иная судьба, они не могут жить по принципам своих отцов. У них свой экзистенциальный путь, который они, к сожалению, найти пока не могут. От этого молодежь начинает протестовать против старых устоев, искать себя. Это находит выражение в моде, в манере общения, взаимоотношениях с родителями. Тоже самое происходит и с главным персонажем. У Сергея вроде бы все хорошо, все идет своим чередом, но он не понимает смысл своей жизни и мечется из стороны в сторону.
Уважаемый al1ksandr,спасибо за хорошее советское кино.
:hi: :10 balov: :respect:
Очередной шедевр Марлена Хуциева.
КУБКИ

СТАЖ

МЕДАЛИ
Награды:148

Пожизненный VIP+ (3) За активную помощь проекту (14) Лучший по количеству кубков (46) За отличные раздачи и качество (3) За отличные комментарии (26) Почётный форумчанин (1) Верный Сид (49) За участие в конкурсах/играх (6)

Аватара пользователя
kwazar312
Заслуженный Корсар-Вип+

Сообщение al1ksandr » 29 июн 2020, 20:21

Пожалуйста. Желаю приятного просмотра.
КУБКИ

СТАЖ

МЕДАЛИ
Награды:56

За активную помощь проекту (4) Лучший по количеству кубков (16) За отличные раздачи и качество (13) За подробное оформление раздач (1) За отличные комментарии (15) Почётный форумчанин (3) Верный Сид (1) За участие в конкурсах/играх (2)

Аватара пользователя
СССР
al1ksandr
Главный Модератор-Корсар


Вернуться в Кино времён СССР (HD Video)



Uptime по данным Ping-Admin.Ru - сервиса мониторинга доступности сайтов
Рейтинг@Mail.ru