logo
Международный русскоязычный
торрент-трекер
Menu
"Бунт на корабле", за скачанные торрент-файлы дублоны не снимаются. Возможность оплачена пользователем Булкин Семён.
Doublon
Поделиться с друзьями: 
Голосуй за Корсар и получи 500 дублонов
Рейтинг торрент трекеров - UpTracker.ru

Миямото Мусаси - 1: Дзэн и меч / Miyamoto Musashi: Zen And Sword (1961, драма, история, DVDRip-AVC) - KORSAR

Сообщение filbi1976 » 03 ноя 2018, 21:56

Миямото Мусаси - 1: Дзэн и меч / Miyamoto Musashi: Zen And Sword

Страна: Япония
Студия: Тоэй
Жанр: Драма, история
Год выпуска: 1961
Продолжительность: 01:56:00
Перевод: Авторский одноголосый - Кузнецов
Режиссер: Утида Тому / Uchida Tomu
В ролях: Накамура Кинноскэ(Nakamura Kinnosuke), Кадзами Акико(Kazami Akiko), Ириэ Вакаба(Irie Wakaba ), Кимура Исао(Kimura Isao ), Нанива Тиэко(Naniwa Chieko), Огасавара Сёдзиро(Ogasawara Shojiro), Ока Сатоми(Oka Satomi)

Описание: Первая часть пенталогии Утиды Тому о легендарном мастере меча Миямото Мусаси. Этот персонаж хорошо известен по трилогии Инагаки с Тосиро Мифунэ в главной роли. Здесь роль Мусаси с успехом исполняет не менее талантливый и разносторонний актер - Накамура Кинноскэ. Повествование начинается с битвы при Сэкигахаре, в которой участвовал будущий мастер, еще не носящий имя Мусаси.

Кодек: х264
Качество: DVDRip-AVC
Видео: MPEG-4 AVC, 698x384@828x384, 23,976 fps, 1569 Кбит/с
Звук: AC3, 2 ch, 192 Кбит/с
Субтитры: Нет
Навигация по главам: Есть



  • x264 [info]: frame I:903 Avg QP:16.19 size: 55400
  • x264 [info]: frame P:52338 Avg QP:17.97 size: 18732
  • x264 [info]: frame B:113803 Avg QP:21.06 size: 3288
  • x264 [info]: consecutive B-frames: 11.3% 4.6% 15.4% 16.8% 18.4% 25.0% 5.6% 1.6% 0.7% 0.6% 0.1% 0.1%
Общее
Уникальный идентификатор : 196205689565585154806138204329684934861 (0x939BD75E1561EB35AAEA16ED2B62A0CD)
Полное имя : D:\Миямото Мусаси - Дзэн и меч_1961-DVDRip-AVC_KORSAR.mkv
Формат : Matroska
Версия формата : Version 2
Размер файла : 1,46 Гбайт
Продолжительность : 1 ч. 56 м.
Общий поток : 1797 Кбит/сек
Название фильма : Миямото Мусаси - 1: Дзэн и меч_1961-DVDRip-AVC_KORSAR
Дата кодирования : UTC 2018-11-03 18:55:12
Программа кодирования : mkvmerge v5.8.0 ('No Sleep / Pillow') built on Sep 2 2012 15:37:04
Библиотека кодирования : libebml v1.2.3 + libmatroska v1.3.0

Видео
Идентификатор : 1
Формат : AVC
Формат/Информация : Advanced Video Codec
Профиль формата : High@L4.1
Параметр CABAC формата : Да
Параметр RefFrames формата : 14 кадров
Идентификатор кодека : V_MPEG4/ISO/AVC
Продолжительность : 1 ч. 56 м.
Битрейт : 1569 Кбит/сек
Ширина : 698 пикселей
Высота : 384 пикселя
Соотношение сторон : 2,2:1
Соотношение сторон в оригинале : 2,2:1
Режим частоты кадров : Постоянный
Частота кадров : 23,976 (24000/1001) кадра/сек
Цветовое пространство : YUV
Субдискретизация насыщенности : 4:2:0
Битовая глубина : 8 бит
Тип развёртки : Прогрессивная
Бит/(Пиксели*Кадры) : 0.244
Размер потока : 1,27 Гбайт (87%)
Библиотека кодирования : x264 core 152 r2851kMod ba24899
Настройки программы : cabac=1 / ref=14 / deblock=1:-2:-2 / analyse=0x3:0x133 / me=umh / subme=10 / psy=1 / fade_compensate=0.00 / psy_rd=1.05:0.10 / mixed_ref=1 / me_range=40 / chroma_me=1 / trellis=2 / 8x8dct=1 / cqm=0 / deadzone=21,11 / fast_pskip=1 / chroma_qp_offset=-3 / threads=12 / lookahead_threads=3 / sliced_threads=0 / nr=0 / decimate=1 / interlaced=0 / bluray_compat=0 / constrained_intra=0 / bframes=11 / b_pyramid=2 / b_adapt=2 / b_bias=0 / direct=1 / weightb=1 / open_gop=0 / weightp=2 / keyint=240 / keyint_min=23 / scenecut=40 / intra_refresh=0 / rc=crf / mbtree=0 / crf=18.0000 / qcomp=0.63 / qpmin=0 / qpmax=45 / qpstep=4 / ip_ratio=1.40 / pb_ratio=1.30 / aq=2:0.90
Язык : English
Default : Да
Forced : Нет
Цветовой диапазон : Limited
Основные цвета : BT.601 NTSC
Характеристики трансфера : BT.601
Коэффициенты матрицы : BT.601

Аудио
Идентификатор : 2
Формат : AC-3
Формат/Информация : Audio Coding 3
Параметр Endianness формата : Big
Идентификатор кодека : A_AC3
Продолжительность : 1 ч. 56 м.
Вид битрейта : Постоянный
Битрейт : 192 Кбит/сек
Каналы : 2 канала
Расположение каналов : Front: L R
Частота : 48,0 КГц
Частота кадров : 31,250 кадров/сек (1536 SPF)
Битовая глубина : 16 бит
Метод сжатия : С потерями
Размер потока : 159 Мбайт (11%)
Заголовок : AVO-Кузнецов
Язык : Russian
ServiceKind/String : Complete Main
Default : Да
Forced : Нет

Меню
00:00:00.000 : en:Chapter 1
00:01:28.000 : en:Chapter 2
00:08:06.000 : en:Chapter 3
00:11:33.200 : en:Chapter 4
00:19:44.001 : en:Chapter 5
00:25:26.802 : en:Chapter 6
00:35:23.202 : en:Chapter 7
00:44:20.803 : en:Chapter 8
00:53:49.203 : en:Chapter 9
01:07:13.204 : en:Chapter 10
01:12:58.805 : en:Chapter 11
01:22:27.606 : en:Chapter 12
01:27:37.207 : en:Chapter 13
01:33:56.808 : en:Chapter 14
01:36:44.409 : en:Chapter 15
01:45:44.010 : en:Chapter 16
01:50:08.077 : en:Chapter 17
Просьба отключить блокировщики рекламы на странице скриншотов по адресу: http://3.lostpic.net/, этим Вы поможете существованию проекта. Заранее спасибо!
Посмотреть товар в профиле пользователя

Нажмите на изображение, чтобы увидеть в полный размер  
1 шт.
Нажмите на изображение, чтобы увидеть в полный размер  
1 шт.
Нажмите на изображение, чтобы увидеть в полный размер  
1 шт.
Нажмите на изображение, чтобы увидеть в полный размер  
1 шт.
Нажмите на изображение, чтобы увидеть в полный размер  
1 шт.
Нажмите на изображение, чтобы увидеть в полный размер  
1 шт.
Нажмите на изображение, чтобы увидеть в полный размер  
1 шт.
Нажмите на изображение, чтобы увидеть в полный размер  
1 шт.
Нажмите на изображение, чтобы увидеть в полный размер  
1 шт.
Нажмите на изображение, чтобы увидеть в полный размер  
1 шт.
Нажмите на изображение, чтобы увидеть в полный размер  
1 шт.
Нажмите на изображение, чтобы увидеть в полный размер  
1 шт.
Нажмите на изображение, чтобы увидеть в полный размер  
1 шт.
Нажмите на изображение, чтобы увидеть в полный размер  
1 шт.
Нажмите на изображение, чтобы увидеть в полный размер  
1 шт.
КУБКИ

СТАЖ

МЕДАЛИ
Награды:120

За помощь проекту (3) За отличные раздачи и качество (76) За отличные комментарии (6) Почётный форумчанин (5) Верный Сид (27) За участие в конкурсах/играх (1)

Аватара пользователя
Тортуга
filbi1976
Администратор-Корсар
Раздачи группы KORSAR разрешено перезаливать спустя 5 дней после публикации, с обязательным добавлением банера
  • Торрент
Для скачивания торрента необходимо зарегистрироваться или войти на трекер.

Сообщение Khargor » 04 ноя 2018, 08:31

:hi: Спасибо Вам большое за Ваш Труд, уважаемый filbi1976! :hi: С уважением!
КУБКИ

СТАЖ

МЕДАЛИ
Награды:15

За отличные раздачи и качество (1) За отличные комментарии (5) Почётный форумчанин (1) Верный Сид (8)

Аватара пользователя
СССР
Khargor
Уважаемый Корсар

Сообщение kwazar312 » 04 ноя 2018, 15:41

Умный человек не пытается найти разгадку тому, что разгадки в принципе не имеет. Умный человек просто берет чудо и придумывает, как использовать сей феномен для пользы дела.
Для того чтобы достичь многого, мы должны не только действовать,но и МЕЧТАТЬ; не только планировать, но и ВЕРИТЬ.
Полезнее знать НЕСКОЛЬКО МУДРЫХ ПРАВИЛ, которые всегда могли бы служить тебе, чем выучиться многим вещам, для тебя бесполезным.
Уважаемый filbi1976,большое спасибо за раздачу фильма.Для меня это новинка.Посмотрю с удовольствием.
Удачи.
КУБКИ

СТАЖ

МЕДАЛИ
Награды:123

За помощь проекту (12) Лучший по количеству кубков (38) За отличные раздачи и качество (2) За отличные комментарии (22) Почётный форумчанин (2) Верный Сид (41) За участие в конкурсах/играх (6)

Аватара пользователя
kwazar312
Заслуженный Корсар-Вип

Сообщение filbi1976 » 05 ноя 2018, 23:38

Всем пожалуйста! :hi:
Посмотреть товар в профиле пользователя

Нажмите на изображение, чтобы увидеть в полный размер  
1 шт.
Нажмите на изображение, чтобы увидеть в полный размер  
1 шт.
Нажмите на изображение, чтобы увидеть в полный размер  
1 шт.
Нажмите на изображение, чтобы увидеть в полный размер  
1 шт.
Нажмите на изображение, чтобы увидеть в полный размер  
1 шт.
Нажмите на изображение, чтобы увидеть в полный размер  
1 шт.
Нажмите на изображение, чтобы увидеть в полный размер  
1 шт.
Нажмите на изображение, чтобы увидеть в полный размер  
1 шт.
Нажмите на изображение, чтобы увидеть в полный размер  
1 шт.
Нажмите на изображение, чтобы увидеть в полный размер  
1 шт.
Нажмите на изображение, чтобы увидеть в полный размер  
1 шт.
Нажмите на изображение, чтобы увидеть в полный размер  
1 шт.
Нажмите на изображение, чтобы увидеть в полный размер  
1 шт.
Нажмите на изображение, чтобы увидеть в полный размер  
1 шт.
Нажмите на изображение, чтобы увидеть в полный размер  
1 шт.
КУБКИ

СТАЖ

МЕДАЛИ
Награды:120

За помощь проекту (3) За отличные раздачи и качество (76) За отличные комментарии (6) Почётный форумчанин (5) Верный Сид (27) За участие в конкурсах/играх (1)

Аватара пользователя
Тортуга
filbi1976
Администратор-Корсар


Вернуться в Классика зарубежного кино (фильмы до 1980 года)



Uptime по данным Ping-Admin.Ru - сервиса мониторинга доступности сайтов
Рейтинг@Mail.ru