logo
Международный русскоязычный
торрент-трекер
Menu

Doublon
Поделиться с друзьями: 
Голосуй за Корсар и получи 400 дублонов
Рейтинг торрент трекеров - UpTracker.ru

Мир в войне / The World at War (Сезон 1, Серии 1-26 из 26 + бонусные серии) (1973-1974, Документальный, военный BDRip-AVC)

Сообщение Korsar » 14 дек 2016, 20:12


Мир в войне / The World at War

Год выпуска: 1973-1974
Страна: Великобритания
Жанр: документальный, военный
Продолжительность: ~52 мин.
Перевод: Профессиональный (многоголосый, закадровый) - СОЮЗ Видео
Субтитры:Русские (внешние *.srt)
[*]Английские (внешние *.srt)
Режиссер: Хью Раггетт / Hugh Raggett, John Pett, David Elstein, Тед Чайлдз, Майкл Дарлоу, Мартин Смит
Сценарий: Питер Бэтти / Peter Batty, Neal Ascherson, Лоуренс Томпсон / Laurence Thompson, Чарльз Блумберг / Charles Bloomberg, Джером Куэл / Jerome Kuehl
Продюсер: Питер Бэтти / Peter Batty, David Elstein, John Pett, Тед Чайлдз / Ted Childs, Майкл Дарлоу / Michael Darlow
Оператор: Ева Браун / Eva Braun
Композитор: Карл Дэвис / Carl Davis
В ролях:
Лоуренс Оливье (играет самого себя - рассказчик), Энтони Иден (играет самого себя), Аверелл Гарриман (играет самого себя), Альберт Шпеер (играет самого себя), Зигфрид Вестфаль (играет самого себя), Дж. Лоутон Коллинз (играет самого себя), Лоуренс Даррел (играет самого себя), Д. Колвилл (играет самого себя), Луис Маунтбеттен (играет самого себя), Wynford Vaughan-Thomas (играет самого себя), David Belchem (играет самого себя), Лорд Батлер (играет самого себя)
Описание:
Непревзойденная по глубине и масштабу, эта многочасовая программа включает выдающуюся коллекцию кинохроники, составленную из архивов 18 нации; кадры домашнего видео, включая цветные съемки Адольфа Гитлера, сделанные Евой Браун; и непредвзятый рассказ о центральных военных событиях Второй Мировой войны. Фильм содержит интервью участников и очевидцев этой войны - от секретарши Гитлера до простых людей, оказавшихся за линией фронта. Берущие за живое, незабываемые истории, произошедшие с реальными людьми.
|

Релиз от
Автор сего чуда: MaTaDoRe
A New Germany: 1933-1939 / Новая Германия: 1933-1939
Distant War: September 1939-May 1940 /Далекая война: Сентябрь 1939 - май
France Falls: May-June 1940 / Падение Франции: Май - Июнь 1940
Alone: May 1940-May 1941 / Один на один: май 1940 - май 1941
Barbarossa: June-December 1941 / Барбаросса: Июнь - Декабрь 1941
Banzai! Japan: 1931-1942 / Банзай!: Япония 1931 - 1942
On Our Way: U.S.A. - 1939-1942 / Своим путем: США 1939 - 1942
The Desert: North Africa - 1940-1943 / Пустыня: Северная Африка 1940-1943
Stalingrad: June 1942-February 1943 / Сталинград: Июнь 1942 - Февраль 1943
Wolf Pack: U-Boats in the Atlantic - 1939-1944 /Волчья стая: Подводные лодки в Атлантике 1939-1944
Red Star: The Soviet Union - 1941-1943 / Красная звезда: Советский союз 1941 - 1943
Whirlwind: Bombing Germany - September 1939-April 1944 /Буря: Бомбардировки Германии сентябрь 1939 - апрель 1944
Tough Old Gut: Italy - November 1942-June 1944 / Жестокая Старая Кишка: Италия ноябрь 1942 - июнь 1944
It's a Lovely Day Tomorrow: Burma - 1942-1944 / Завтра будет прекрасный день: Бирма 1942 - 1944
Home Fires: Britain - 1940-1944 / Дом в огне: Британия 1940 - 1944
Inside the Reich: Germany - 1940-1944 / Внутри Рейха: Германия 1940 - 1944
Morning: June-August 1944 / Утро: Июнь - Август 1944
Occupation: Holland - 1940-1944 / Оккупация: Голландия 1940 - 1944
Pincers: August 1944-March 1945 / Клещи: Август 1944 - Март 1945
Genocide: 1941-1945 / Геноцид: 1941 - 1945
Nemesis: Germany - February-May 1945 / Возмездие: Германия февраль - май 1945
Japan: 1941-1945 / Япония: 1941 - 1945
Pacific: February 1942-July 1945 / Тихий океан: Февраль 1942 - Июль 1945
The Bomb: February-September 1945 / Бомба: Февраль - Сентябрь 1945
Reckoning: 1945... and After / Расплата: 1945... и после
Remember / Хранить в памяти

Bonus:

Secretary to Hitler / Секретарь Гитлера Тредл Джангл
From War to Peace / От войны к миру
Soldiers / Солдат
Hitler's Germany: The People's Unity (1933 - 1939) / Гитлеровская Германия: Народное единение (1933 - 1939)
Hitler's Germany: Total War (1939 - 1945) / Гитлеровская Германия: Тотальная война (1939 - 1945)
The Two Deaths of Adolf Hitler / Две смерти Адольфа Гитлера
The final decision. Part 1 / Окончательное решение. Часть 1
The final decision. Part 2 / Окончательное решение. Часть 1
Код:
Код: Выделить всё
General
      Unique ID : 218798064973582941427618586574712532109 (0xA49AF97987D97C88BEB22A47AC7CEC8D)
      Format : Matroska
      File size : 1.37 GiB
      Duration : 54mn 20s
      Overall bit rate : 3 610 Kbps
      Encoded date : UTC 2011-04-18 20:24:57
      Writing application : mkvmerge v4.6.0 ('Still Crazy After All These Years') built on Mar 10 2011 02:50:32
      Writing library : libebml v1.2.0 + libmatroska v1.1.0
   Video #1
      ID : 1
      Format : AVC
      Format/Info : Advanced Video Codec
      Format profile : High@L4.1
      Format settings, CABAC : Yes
      Format settings, ReFrames : 7 frames
      Format settings, GOP : M=7, N=24
      Codec ID : V_MPEG4/ISO/AVC
      Duration : 54mn 20s
      Bit rate : 2 937 Kbps
      Width : 1 024 pixels
      Height : 576 pixels
      Display aspect ratio : 16:9
      Frame rate : 23.976 fps
      Color space : YUV
      Chroma subsampling : 4:2:0
      Bit depth : 8 bits
      Scan type : Progressive
      Bits/(Pixel*Frame) : 0.207
      Stream size : 1.09 GiB (79%)
      Writing library : x264 core 114 r1913 5fd3dce
      Encoding settings : cabac=1 / ref=8 / deblock=1:-3:-2 / analyse=0x3:0x113 / me=umh / subme=9 / psy=1 / psy_rd=1.00:0.15 / mixed_ref=1 / me_range=32 / chroma_me=1 / trellis=2 / 8x8dct=1 / cqm=0 / deadzone=21,11 / fast_pskip=1 / chroma_qp_offset=-3 / threads=6 / sliced_threads=0 / nr=0 / decimate=1 / interlaced=0 / constrained_intra=0 / bframes=6 / b_pyramid=1 / b_adapt=1 / b_bias=0 / direct=1 / weightb=1 / open_gop=0 / weightp=2 / keyint=250 / keyint_min=23 / scenecut=40 / intra_refresh=0 / rc_lookahead=50 / rc=2pass / mbtree=1 / bitrate=2933 / ratetol=1.0 / qcomp=0.70 / qpmin=10 / qpmax=51 / qpstep=4 / cplxblur=20.0 / qblur=0.5 / ip_ratio=1.40 / aq=1:1.00
      Language : English
   Audio #2
      ID : 2
      Format : AC-3
      Format/Info : Audio Coding 3
      Mode extension : CM (complete main)
      Codec ID : A_AC3
      Duration : 54mn 20s
      Bit rate mode : Constant
      Bit rate : 224 Kbps
      Channel(s) : 2 channels
      Channel positions : Front: L R
      Sampling rate : 48.0 KHz
      Bit depth : 16 bits
      Compression mode : Lossy
      Stream size : 87.1 MiB (6%)
      Language : Russian
   Audio #3
      ID : 3
      Format : AC-3
      Format/Info : Audio Coding 3
      Mode extension : CM (complete main)
      Codec ID : A_AC3
      Duration : 54mn 20s
      Bit rate mode : Constant
      Bit rate : 448 Kbps
      Channel(s) : 6 channels
      Channel positions : Front: L C R, Side: L R, LFE
      Sampling rate : 48.0 KHz
      Bit depth : 16 bits
      Compression mode : Lossy
      Stream size : 174 MiB (12%)
      Language : English


Качество: BDRip-AVC [Blu-ray 1080p] - Скачать сэмпл
Формат
: Matroska
Видео кодек: H.264
Аудио кодек: AC3
Видео: 1024x576 at 23,976, H.264, ~2933 kbps avg
Аудио:Аудио#1: 48 kHz, AC3, 2/0 (L,R) ch, ~224 kbps - (СОЮЗ Видео)
[*]Аудио#2: 48 kHz, AC3, 3/2 (L,C,R,l,r) + LFE ch, ~448 kbps - (Original)

Боцман
КУБКИ

СТАЖ

МЕДАЛИ
Награды:32

За помощь проекту (2) Лучший по количеству кубков (2) За отличные раздачи и качество (13) За подробное оформление раздач (1) За отличные комментарии (1) Верный Сид (11) За участие в конкурсах/играх (2)

Аватара пользователя
СССР
Korsar
Заслуженный Корсар-Вип+
  • Торрент
Для скачивания торрента необходимо зарегистрироваться или войти на трекер.

Вернуться в Документальные фильмы и телепередачи (HD Video)



Uptime по данным Ping-Admin.Ru - сервиса мониторинга доступности сайтов
Рейтинг@Mail.ru Голосуйте за наш сайт в каталоге Rubo.Ru