logo
Международный русскоязычный
торрент-трекер
Menu
Doublon
Поделиться с друзьями: 
Голосуй за Корсар и получи 500 дублонов
Рейтинг торрент трекеров - UpTracker.ru

Мир Сьюзи Вонг / The World of Suzie Wong (1960, Драма, мелодрама, WEB-DLRip 720p) - KORSAR

Сообщение MZMA » 28 апр 2017, 17:39

Название: Мир Сьюзи Вонг
Оригинальное название: The World of Suzie Wong
Год выпуска: 1960
Выпущено: Великобритания, США, World Enterprises
Жанр: Драма, мелодрама
Режиссер: Ричард Куайн
В ролях: Уильям Холден, Нэнси Кван, Сильвия Симс, Майкл Уайлдинг, Жаклин Чан, Лоуренс Нэйсмит, Ивонн Сима, Энди Хо, Лир Хванг, Бернард Криббинс

О фильме:
Американский архитектор Роберт Ломэкс приезжает в Гонконг на один год для занятий живописью. Он устал работать в офисе и хочет попробовать зарабатывать себе на жизнь в качестве художника. Будучи ограничен в средствах, он снимает номер в Ван Чай, самом бедном районе Гонконга. В баре отеля он знакомится с Сьюзи Вонг и другими девушками, которые нелегально занимаются проституцией при отеле. Роберт не намерен отвлекаться от работы и не снимает себе девушек, поэтому у них устанавливаются дружеские отношения. Потом он просит Сьюзи Вонг позировать для него и постепенно влюбляется в нее...

Продолжительность: 02:06:04
Перевод: Профессиональный многоголосый
Субтитры: Русские (Олея), английские
Навигация по главам: Есть

Качество: WEB-DLRip 720p
Видео: MPEG-4 AVC, 7014 Кбит/сек, 1280x720, 23,976 кадра/сек
Аудио №1: AC3, 2 ch, 192 Кбит/сек | Русский, профессиональный (многоголосый закадровый) 5-й канал
Аудио №2: AC3, 2 ch, 224 Кбит/сек | Английский, оригинал


Уникальный идентификатор : 204665067942015189305063210480737630274 (0x99F90EEC38C326C5B0F7ECCB93B6B842)
Полное имя : The.World.of.Suzie.Wong.1960.WEBRip.720p.mkv
Формат : Matroska
Версия формата : Version 2
Размер файла : 6,55 Гбайт
Продолжительность : 2 ч. 6 м.
Общий поток : 7433 Кбит/сек
Название фильма : The.World.of.Suzie.Wong.1960.WEBRip.720p.MZMA
Дата кодирования : UTC 2017-04-28 09:28:07
Программа кодирования : mkvmerge v3.4.0 ('Rapunzel') сборка от May 15 2010 09:38:20
Библиотека кодирования : libebml v0.8.0 + libmatroska v0.9.0

Видео
Идентификатор : 1
Формат : AVC
Формат/Информация : Advanced Video Codec
Профиль формата : High@L4.1
Параметр CABAC формата : Да
Параметр ReFrames формата : 8 кадров
Идентификатор кодека : V_MPEG4/ISO/AVC
Продолжительность : 2 ч. 6 м.
Битрейт : 7014 Кбит/сек
Ширина : 1280 пикселей
Высота : 720 пикселей
Соотношение сторон : 16:9
Режим частоты кадров : Постоянный
Частота кадров : 23,976 (24000/1001) кадра/сек
Цветовое пространство : YUV
Субдискретизация насыщенности : 4:2:0
Битовая глубина : 8 бит
Тип развёртки : Прогрессивная
Бит/(Пиксели*Кадры) : 0.317
Размер потока : 6,05 Гбайт (92%)
Заголовок : RIP - MZMA
Библиотека кодирования : x264 core 130 r2273 b3065e6
Настройки программы : cabac=1 / ref=9 / deblock=1:-3:-3 / analyse=0x3:0x133 / me=umh / subme=11 / psy=1 / psy_rd=1.00:0.00 / mixed_ref=0 / me_range=32 / chroma_me=1 / trellis=2 / 8x8dct=1 / cqm=0 / deadzone=21,11 / fast_pskip=1 / chroma_qp_offset=-2 / threads=6 / lookahead_threads=1 / sliced_threads=0 / nr=0 / decimate=1 / interlaced=0 / bluray_compat=0 / constrained_intra=0 / bframes=16 / b_pyramid=1 / b_adapt=2 / b_bias=0 / direct=1 / weightb=1 / open_gop=0 / weightp=1 / keyint=240 / keyint_min=24 / scenecut=40 / intra_refresh=0 / rc_lookahead=60 / rc=2pass / mbtree=1 / bitrate=7014 / ratetol=1.0 / qcomp=0.60 / qpmin=0 / qpmax=69 / qpstep=4 / cplxblur=20.0 / qblur=0.5 / vbv_maxrate=62500 / vbv_bufsize=78125 / nal_hrd=none / ip_ratio=1.40 / aq=1:1.00
Язык : English
Default : Да
Forced : Нет
Цветовой диапазон : Limited
Основные цвета : BT.709
Характеристики трансфера : BT.709
Коэффициенты матрицы : BT.709

Аудио #1
Идентификатор : 2
Формат : AC-3
Формат/Информация : Audio Coding 3
Параметр Endianness формата : Big
Идентификатор кодека : A_AC3
Продолжительность : 2 ч. 6 м.
Вид битрейта : Постоянный
Битрейт : 192 Кбит/сек
Каналы : 2 канала
Расположение каналов : Front: L R
Частота : 48,0 КГц
Частота кадров : 31,250 кадров/сек (1536 spf)
Битовая глубина : 16 бит
Метод сжатия : С потерями
Размер потока : 173 Мбайт (3%)
Заголовок : MVO | 5-й канал
Язык : Russian
ServiceKind/String : Complete Main
Default : Да
Forced : Нет

Аудио #2
Идентификатор : 3
Формат : AC-3
Формат/Информация : Audio Coding 3
Параметр Endianness формата : Big
Идентификатор кодека : A_AC3
Продолжительность : 2 ч. 6 м.
Вид битрейта : Постоянный
Битрейт : 224 Кбит/сек
Каналы : 2 канала
Расположение каналов : Front: L R
Частота : 48,0 КГц
Частота кадров : 31,250 кадров/сек (1536 spf)
Битовая глубина : 16 бит
Метод сжатия : С потерями
Размер потока : 202 Мбайт (3%)
Заголовок : Original
Язык : English
ServiceKind/String : Complete Main
Default : Нет
Forced : Нет

Текст #1
Идентификатор : 4
Формат : UTF-8
Идентификатор кодека : S_TEXT/UTF8
Идентификатор кодека/Информация : UTF-8 Plain Text
Язык : Russian
Default : Нет
Forced : Нет

Текст #2
Идентификатор : 5
Формат : UTF-8
Идентификатор кодека : S_TEXT/UTF8
Идентификатор кодека/Информация : UTF-8 Plain Text
Язык : English
Default : Нет
Forced : Нет

Текст #3
Идентификатор : 6
Формат : UTF-8
Идентификатор кодека : S_TEXT/UTF8
Идентификатор кодека/Информация : UTF-8 Plain Text
Заголовок : SDH
Язык : English
Default : Нет
Forced : Нет

Меню
00:00:00.000 : ru:Глава 1
00:09:51.000 : ru:Глава 2
00:19:51.000 : ru:Глава 3
00:29:51.000 : ru:Глава 4
00:39:51.000 : ru:Глава 5
00:49:51.000 : ru:Глава 6
00:59:51.000 : ru:Глава 7
01:09:50.840 : ru:Глава 8
01:19:50.840 : ru:Глава 9
01:29:50.840 : ru:Глава 10
01:39:50.840 : ru:Глава 11
01:49:50.840 : ru:Глава 12
01:59:50.840 : ru:Глава 13


Просьба отключить блокировщики рекламы на странице скриншотов по адресу: http://3.lostpic.net/, этим Вы поможете существованию проекта. Заранее спасибо!
При скачивании раздач данного релизёра, дублоны не снимаются, а за сидирование установлен максимальный коэффициент. Просьба ко всем, поддержать сидированием раздачи Леонида и сохранить о нём память!
КУБКИ

СТАЖ

МЕДАЛИ
Награды:109

За помощь проекту (4) Лучший по количеству кубков (6) За отличные раздачи и качество (56) За подробное оформление раздач (11) За отличные комментарии (4) Почётный форумчанин (3) Верный Сид (23)

Аватара пользователя
СССР
MZMA
Главный Модератор-Корсар
Раздачи группы KORSAR разрешено перезаливать спустя сутки после публикации, с обязательным добавлением банера, или указанием группы в заголовке раздачи
  • Торрент
Для скачивания торрента необходимо зарегистрироваться или войти на трекер.

Вернуться в Классика зарубежного кино (фильмы до 1980 года / HD Video)



Uptime по данным Ping-Admin.Ru - сервиса мониторинга доступности сайтов
Рейтинг@Mail.ru Голосуйте за наш сайт в каталоге Rubo.Ru