logo
Международный русскоязычный
торрент-трекер
Menu
Doublon
Поделиться с друзьями: 
Голосуй за Корсар и получи 500 дублонов
Рейтинг торрент трекеров - UpTracker.ru

Мим Бим или чужая жизнь (2008, боевик, WEB-DLRip-AVC)

Сообщение Korsarka » 10 ноя 2019, 18:38

Оригинальное название: Мим Бим или чужая жизнь
Год выхода: 2008
Жанр: боевик
Режиссер: Иван Войтюк
В ролях: Илья Шакунов, Дмитрий Бозин, Елена Борох

О фильме: Жизнь щедра на сюрпризы! Никогда не знаешь, где найдешь, а где потеряешь. В жизни талантливого молодого актера начинается полоса невезений. Сначала он лишается работы в театре. Потом от него уходит жена и забирает с собой 8-летнюю дочку. Бим (так его нынче все называют) пытается заработать денег в качестве площадного мима – копирует проходящих мимо людей. И в тот момент, когда жизнь, казалось бы, утратила всякий смысл, в ней появляется загадочный человек и предлагает Биму за миллион долларов постепенно вжиться в образ одного пропавшего без вести...



Продолжительность: 01:34:26
Язык: Русский

Формат: MKV
Качество: WEB-DLRip-AVC
Видео: MPEG-4 AVC, 1024x576 (16:9), 25.000 fps, 2119 Kbps, 0.144 bit/pixel
Звук: 48 kHz, AC3, 2/0 (L,R), ~192 kbps avg


General
Unique ID : 188367828400151858172397905194313875031 (0x8DB652FA05293793A61FE29C93CC7E57)
Complete name : F:Мим.Бим.или.Чужая.Жизнь. 2008.WEB-DLRip.AVC.ExKinRay.mkv
Format : Matroska
Format version : Version 2
File size : 1.53 GiB
Duration : 1 h 34 min
Overall bit rate : 2 313 kb/s
Movie name : Мим Бим или Чужая Жизнь 2008 from ExKinoRay
Encoded date : UTC 2019-11-10 13:18:46
Writing application : mkvmerge v5.6.0 ('Kenya Kane') built on May 27 2012 16:44:04
Writing library : libebml v1.2.3 + libmatroska v1.3.0

Video
ID : 1
Format : AVC
Format/Info : Advanced Video Codec
Format profile : High@L4.1
Format settings, CABAC : Yes
Format settings, ReFrames : 11 frames
Codec ID : V_MPEG4/ISO/AVC
Duration : 1 h 34 min
Bit rate : 2 119 kb/s
Width : 1 024 pixels
Height : 576 pixels
Display aspect ratio : 16:9
Frame rate mode : Constant
Frame rate : 25.000 FPS
Color space : YUV
Chroma subsampling : 4:2:0
Bit depth : 8 bits
Scan type : Progressive
Bits/(Pixel*Frame) : 0.144
Stream size : 1.37 GiB (90%)
Title : Enigma
Writing library : x264 core 152 r2851 ba24899
Encoding settings : cabac=1 / ref=11 / deblock=1:-2:-2 / analyse=0x3:0x113 / me=umh / subme=10 / psy=1 / psy_rd=1.00:0.05 / mixed_ref=1 / me_range=32 / chroma_me=1 / trellis=2 / 8x8dct=1 / cqm=0 / deadzone=21,11 / fast_pskip=0 / chroma_qp_offset=-3 / threads=12 / lookahead_threads=3 / sliced_threads=0 / nr=0 / decimate=0 / interlaced=0 / bluray_compat=0 / constrained_intra=0 / bframes=10 / b_pyramid=2 / b_adapt=2 / b_bias=0 / direct=3 / weightb=1 / open_gop=0 / weightp=2 / keyint=250 / keyint_min=25 / scenecut=40 / intra_refresh=0 / rc=2pass / mbtree=0 / bitrate=2119 / ratetol=1.0 / qcomp=0.60 / qpmin=0 / qpmax=51 / qpstep=4 / cplxblur=20.0 / qblur=0.5 / ip_ratio=1.40 / pb_ratio=1.30 / aq=1:1.00
Language : English
Default : Yes
Forced : No
Color range : Limited
Color primaries : BT.709
Transfer characteristics : BT.709
Matrix coefficients : BT.709

Audio
ID : 2
Format : AC-3
Format/Info : Audio Coding 3
Mode extension : CM (complete main)
Format settings, Endianness : Big
Codec ID : A_AC3
Duration : 1 h 34 min
Bit rate mode : Constant
Bit rate : 192 kb/s
Channel(s) : 2 channels
Channel positions : Front: L R
Sampling rate : 48.0 kHz
Frame rate : 31.250 FPS (1536 spf)
Compression mode : Lossy
Stream size : 130 MiB (8%)
Language : Russian
Default : Yes
Forced : No








Релиз от:

Автор релиза:
КУБКИ

СТАЖ

МЕДАЛИ
Награды:62

За активную помощь проекту (1) Лучший по количеству кубков (12) За отличные раздачи и качество (25) За подробное оформление раздач (1) За отличные комментарии (6) Почётный форумчанин (4) Верный Сид (10)

Аватара пользователя
Korsarka
Уважаемый Релизёр-Корсар
  • Торрент
Для скачивания торрента необходимо зарегистрироваться или войти на трекер.

Вернуться в Наше современное кино



Uptime по данным Ping-Admin.Ru - сервиса мониторинга доступности сайтов
Рейтинг@Mail.ru