logo
Международный русскоязычный
торрент-трекер
Menu
Магазин-KorsaRDoublon
Поделиться с друзьями: 
Голосуй и получи дублоны
Рейтинг торрент трекеров - UpTracker.ru

Микки Маус / Mickey Mouse / Сезон: 1 / Серии: 1-18 из 18 (2013, короткометражный мультсериал, WEBRip)

Сообщение Korsar » 09 дек 2016, 07:53

Микки Маус : Mickey Mouse
Год выпуска: 2013
Страна: США
Жанр: короткометражный мультсериал
Продолжительность: ~00:03:26 х 18
Перевод: Профессиональный (Дублированный)
субтитры: отсутствуют
Режиссёр: Пол Рудиш : Paul Rudish, Аарон Спринджер : Aaron Springer, Клэй Морроу : Clay Morrow, Дэвид Вассон : David Wasson, Крис Савино: Chris Savino, Уильям Рейсс: William Reiss
Роли озвучивали: Крис Диамантополос, Билл Фармер, Расси Тейлор, Тони Ансельмо, Аарон Спринджер
Пол Рудиш, Тресс МакНилл, Фред Татаскьор, Дэвид Вассон, Ди Брэдли Бейкер

Роли дублировали: Максим Сергеев, Сергей Бызгу, Сауле Искакова, Константин Петров, Снежина Копрова
Описание: Новый Микки Маус отправляется в кругосветное путешествие со своими друзьями!
релиз:
Доп. информация: *в раздаче присутствуют разные разрешения видео 720х400 и 704х384.

Качество: WEBRip
Формат: AVI
Видео кодек: XviD
Аудио кодек: MP3
Видео: 720x400 *704х384, (1.80:1), 25 fps, XviD build 65 ~2148 kbps avg, 0.30 bit/pixel
Аудио: 44.100 kHz, MPEG Layer 3, 2 ch, ~128.00 kbps avg

1. Триумфальный круассан : Croissant de Triomphe
2. Отказ : No Service
3. Йодльберг : Yodelberg
4. Хот Дог : New York Weenie
5. Восточный экспресс : Tokyo Go
6. Жара : Stayin' Cool
7. Лунатик : Sleepwalkin'
8. Панда-мониум : Panda-monium
9. Непослушные уши : Bad Ear Day
10. Серенада : 'O Sole Minnie
11. Лучший пес : Dog Show
12. Очаровательная пара : The Adorable Couple
13. Чемпион : Tapped Out
14. Воды!: Gasp!
15. ЛАстабоботОз : Flipperboobootosis
16. Картошечка : Potatoland
17. Третий лишний : Third Wheel
18. Мрачный друг : Ghoul Friend

Бонусы:
1. Секреты анимации - Пол Рудиш
2. Секреты анимации - фильмы о Микки


Общее
Полное имя : C:\Микки Маус\Микки Маус.2013.WEBRip [-Azureus-]\Восточный экспресс.avi
Формат : AVI
Формат/Информация : Audio Video Interleave
Размер файла : 59,6 Мбайт
Продолжительность : 3 м. 26 с.
Общий поток : 2424 Кбит/сек
Программа кодирования : VirtualDubMod 1.5.10.3 (build 2550/release)
Библиотека кодирования : VirtualDubMod build 2550/release

Видео
Идентификатор : 0
Формат : MPEG-4 Visual
Профиль формата : Advanced Simple@L5
Параметр BVOP формата : 2
Параметр QPel формата : Нет
Параметр GMC формата : Без точки перехода
Параметр матрицы формата : Выборочная
Идентификатор кодека : XVID
Идентификатор кодека/Подсказка : XviD
Продолжительность : 3 м. 26 с.
Битрейт : 2286 Кбит/сек
Ширина : 704 пикселя
Высота : 384 пикселя
Соотношение сторон : 1,85:1
Частота кадров : 25,000 кадров/сек
Цветовое пространство : YUV
Субдискретизация насыщенности : 4:2:0
Битовая глубина : 8 бит
Тип развёртки : Прогрессивная
Метод сжатия : С потерями
Бит/(Пиксели*Кадры) : 0.338
Размер потока : 56,2 Мбайт (94%)
Библиотека кодирования : XviD 65

Аудио
Идентификатор : 1
Формат : MPEG Audio
Версия формата : Version 1
Профиль формата : Layer 3
Режим : Joint stereo
Расширение режима : MS Stereo
Идентификатор кодека : 55
Идентификатор кодека/Подсказка : MP3
Продолжительность : 3 м. 26 с.
Вид битрейта : Постоянный
Битрейт : 128 Кбит/сек
Каналы : 2 канала
Частота : 44,1 КГц
Метод сжатия : С потерями
Размер потока : 3,15 Мбайт (5%)
Выравнивание : Разделение по промежуткам
Продолжительность промежутка : 40 мс. (1,00 видеокадр)
Время предзагрузки промежутка : 500 мс.
Библиотека кодирования : LAME3.99r
Настройки программы : -m j -V 4 -q 3 -lowpass 17 -b 128

Боцман
Аватара пользователя
Korsar
Помощник Администратора-Корсар
 
Месяцев на трекере: 11Месяцев на трекере: 11Месяцев на трекере: 11Месяцев на трекере: 11Месяцев на трекере: 11Месяцев на трекере: 11Месяцев на трекере: 11Месяцев на трекере: 11Месяцев на трекере: 11Месяцев на трекере: 11Месяцев на трекере: 11
 

Награды: 8
За отличные раздачи (7) Верный Сид (1)
  • Торрент
Для скачивания торрента необходимо зарегистрироваться или войти на трекер.

Вернуться в Мульсериалы



мониторинг сайтов