logo
Международный русскоязычный
торрент-трекер
Menu

Doublon
Поделиться с друзьями: 
Голосуй за Корсар и получи 120 дублонов
Рейтинг торрент трекеров - UpTracker.ru

Мы с вами где-то встречались (1954, комедия, SATRip-AVC) - KORSAR

Сообщение filbi1976 » 18 янв 2017, 10:12

Название: Мы с вами где-то встречались
Год выхода: 1954
Жанр: комедия
Выпущено: СССР
Продолжительность: 01:29:45
Режиссер: Николай Досталь, Андрей Тутышкин
В ролях: Аркадий Райкин, Людмила Целиковская, Василий Меркурьев, Мария Миронова, Владимир Лепко, Михаил Яншин, Ольга Аросева, Алексей Бахарь, Александр Бениаминов, Николай Чистяко

Описание: Известный актер Геннадий Максимов едет на юг, в Крым, вместе с женой Ларисой. Ее снимают прямо с поезда, чтобы заменить заболевшую актрису. Максимову приходится добираться до Крыма одному. Он отстает от поезда, встречается со многими людьми, и каждая встреча превращается в сатирическую, театральную миниатюру.



Кодек: х264
Качество: SATRip-AVC
Видео: MPEG-4 AVC, 672x560@716x560, 25 fps, 2500 Кбит/с
Звук: AC3, 2 ch, 256 Кбит/с

  • x264 [info]: frame I:739 Avg QP:18.21 size: 73612
  • x264 [info]: frame P:29090 Avg QP:20.16 size: 34766
  • x264 [info]: frame B:104786 Avg QP:21.93 size: 5886
===================================================================================
Общее
Уникальный идентификатор : 185219516824010420126202703331633649565 (0x8B57FB3B4D5CC11CB63A5042D887D79D)
Полное имя : D:\Мы с вами где-то встречались_1954-SATRip-AVC.mkv
Формат : Matroska
Версия формата : Version 2
Размер файла : 1,73 Гбайт
Продолжительность : 1 ч. 29 м.
Общий поток : 2758 Кбит/сек
Дата кодирования : UTC 2017-01-18 06:58:47
Программа кодирования : mkvmerge v5.8.0 ('No Sleep / Pillow') built on Sep 2 2012 15:37:04
Библиотека кодирования : libebml v1.2.3 + libmatroska v1.3.0

Видео
Идентификатор : 1
Формат : AVC
Формат/Информация : Advanced Video Codec
Профиль формата : High@L4.1
Параметр CABAC формата : Да
Параметр ReFrames формата : 14 кадров
Идентификатор кодека : V_MPEG4/ISO/AVC
Продолжительность : 1 ч. 29 м.
Битрейт : 2500 Кбит/сек
Ширина : 672 пикселя
Высота : 560 пикселей
Соотношение сторон : 1,279
Соотношение сторон в оригинале : 1,280
Режим частоты кадров : Постоянный
Частота кадров : 25,000 кадров/сек
Цветовое пространство : YUV
Субдискретизация насыщенности : 4:2:0
Битовая глубина : 8 бит
Тип развёртки : Прогрессивная
Бит/(Пиксели*Кадры) : 0.266
Размер потока : 1,53 Гбайт (89%)
Библиотека кодирования : x264 core 148 r2744kMod b97ae06
Настройки программы : cabac=1 / ref=14 / deblock=1:-2:-2 / analyse=0x3:0x133 / me=umh / subme=10 / psy=1 / fade_compensate=0.00 / psy_rd=1.05:0.12 / mixed_ref=1 / me_range=32 / chroma_me=1 / trellis=2 / 8x8dct=1 / cqm=0 / deadzone=21,11 / fast_pskip=0 / chroma_qp_offset=-3 / threads=12 / lookahead_threads=3 / sliced_threads=0 / nr=0 / decimate=0 / interlaced=0 / bluray_compat=0 / constrained_intra=0 / bframes=10 / b_pyramid=2 / b_adapt=2 / b_bias=0 / direct=3 / weightb=1 / open_gop=0 / weightp=2 / keyint=250 / keyint_min=25 / scenecut=40 / intra_refresh=0 / rc=2pass / mbtree=0 / bitrate=2500 / ratetol=1.0 / qcomp=0.63 / qpmin=0 / qpmax=39 / qpstep=4 / cplxblur=20.0 / qblur=0.5 / ip_ratio=1.20 / pb_ratio=1.30 / aq=2:0.90
Язык : English
Default : Да
Forced : Нет
Цветовой диапазон : Limited
Основные цвета : BT.601 PAL
Характеристики трансфера : BT.470 System B, BT.470 System G
Коэффициенты матрицы : BT.601

Аудио
Идентификатор : 2
Формат : AC-3
Формат/Информация : Audio Coding 3
Расширение режима : CM (complete main)
Параметр Endianness формата : Big
Идентификатор кодека : A_AC3
Продолжительность : 1 ч. 29 м.
Вид битрейта : Постоянный
Битрейт : 256 Кбит/сек
Каналы : 2 канала
Расположение каналов : Front: L R
Частота : 48,0 КГц
Частота кадров : 31,250 кадров/сек (1536 spf)
Битовая глубина : 16 бит
Метод сжатия : С потерями
Размер потока : 164 Мбайт (9%)
Язык : Russian
Default : Да
Forced : Нет
Аватара пользователя
filbi1976
Администратор-Корсар
 
 

Награды: 28
За отличные раздачи и качество (21) Верный Сид (5) За участие в конкурсах (1)
  • Торрент
Для скачивания торрента необходимо зарегистрироваться или войти на трекер.

Сообщение Bulfrogg » 18 янв 2017, 10:16

Огромнейшее спасибо, Сергей!
Сколько было скачано в свое время разных рипов (((... Наконец - качественный :good:
Еще раз - СПАСИБИЩЕ!!!
Аватара пользователя
Bulfrogg
Заслуженный Корсар-Вип
 
 

Награды: 17
За помощь проекту (9) Лучший по количеству кубков (2) За отличные комментарии (1) Верный Сид (5)

Сообщение kwazar312 » 18 янв 2017, 10:31

Уважаемый filbi1976,огромное спасибо за релиз этого фильма.Старая,добрая комедия с участием А.Райкина,да еще в хорошем качестве-это замечательно.Даже и не верится,что это возможно...
Аватара пользователя
kwazar312
Заслуженный Корсар-Вип
 
 

Награды: 29
За помощь проекту (4) Лучший по количеству кубков (8) За отличные комментарии (5) Верный Сид (10) За участие в конкурсах (2)

Сообщение verybigpapa » 18 янв 2017, 11:06

Огромное спасибо, уважаемый filbi1976. :hi:
Улыбайтесь, господа! Улыбайтесь!
Аватара пользователя
verybigpapa
Заслуженный Корсар-Вип
 
 

Награды: 20
За помощь проекту (8) Лучший по количеству кубков (4) За отличные комментарии (4) Верный Сид (4)

Сообщение Bars_St » 18 янв 2017, 20:08

Спасибо! Замечательная комедия :good:
Аватара пользователя
Bars_St
Заслуженный Корсар-Вип
 
 

Награды: 15
За помощь проекту (5) Лучший по количеству кубков (1) За отличные комментарии (7) Верный Сид (2)

Сообщение mister.hats » 18 янв 2017, 22:50

Спасибо Сереж :hi:
Теперь Райкин в сборе... :drinks: :dance:

Тот кто не с нами, тот против нас
Аватара пользователя
mister.hats
Заслуженный Корсар-Вип
 
 

Награды: 20
За помощь проекту (3) Лучший по количеству кубков (4) За отличные раздачи и качество (9) За отличные комментарии (1) Верный Сид (3)

Сообщение bagrad » 18 янв 2017, 23:19

Большое спасибо Сергей! :hi: Старая, добрая комедия где ещё так вольно дышит человек! ;)
Dum spíro, spéro!
Аватара пользователя
bagrad
Заслуженный Корсар-Вип
 
 

Награды: 16
За помощь проекту (2) Лучший по количеству кубков (9) За отличные комментарии (1) Верный Сид (4)

Сообщение Digor » 19 янв 2017, 00:46

mister.hats писал(а):Спасибо Сереж :hi:
Теперь Райкин в сборе... :drinks: :dance:


Еще спектакль "Мир дому твоему", в котором отец и сын Райкины в главных ролях.

Огромное спасибо, Сергей за прекрасный фильм! :hi: :drinks:
Аватара пользователя
Digor
Главный Модератор-Корсар
 
 

Награды: 9
За помощь проекту (4) Лучший по количеству кубков (1) Верный Сид (3)

Сообщение filbi1976 » 19 янв 2017, 09:23

Всем пожалуйста! :hi:
Digor писал(а):Еще спектакль "Мир дому твоему", в котором отец и сын Райкины в главных ролях.

Уже делаю.
Аватара пользователя
filbi1976
Администратор-Корсар
 
 

Награды: 28
За отличные раздачи и качество (21) Верный Сид (5) За участие в конкурсах (1)

Сообщение mister.hats » 18 фев 2018, 12:50

Раздаю. :hi:

Тот кто не с нами, тот против нас
Аватара пользователя
mister.hats
Заслуженный Корсар-Вип
 
 

Награды: 20
За помощь проекту (3) Лучший по количеству кубков (4) За отличные раздачи и качество (9) За отличные комментарии (1) Верный Сид (3)


Вернуться в Кино времён СССР



Uptime по данным Ping-Admin.Ru - сервиса мониторинга доступности сайтов
Рейтинг@Mail.ru