logo
Международный русскоязычный
торрент-трекер
Menu
Магазин-KorsaRDoublon
Поделиться с друзьями: 
Голосуй и получи дублоны
Рейтинг торрент трекеров - UpTracker.ru

Метод Фрейда / Серии: 1-12 из 12 (2012, детектив, криминал, SATRip-AVC)

Сообщение aleksan55 » 07 янв 2017, 19:10

Год выпуска: 2013
Производство:Россия, Star media
Жанр: детектив, криминал
Продолжительность: 00:50:00
Субтитры: нет

Режиссёр: Михаил Вайнберг

В ролях:Иван Охлобыстин, Наталия Антонова, Елена Николаева , Павел Прилучный, Алексей Гришин, Артур Ваха, Анастасия Дюкова, Ефим Банчик, Виталий Зикора, Дамир Сухов, Джемал Тетруашвили, Наталья Рычкова, Борис Эстрин, Дмитрий Луговкин, Юрий Борисов , Варвара Бородина, Артем Волобуев, Сергей Колешня, Наталья Заякина, Павел Капитонов, Денис Старков, Елена Степанова , Яна Чигир, Азамат Нигманов, Александр Голубков, Игорь Скурихин, Юрий Оленников, Владимир Шульга, Стелла Ильницкая, Александр Ливанов, Юлия Куварзина, Ольга Карпович, Григорий Зельцер, Анастасия Меськова


Описание:В следственный отдел прокуратуры введен специальный консультант, гражданский человек Роман Фрейдин, психолог по образованию. Его появление обусловлено необходимостью применения нетрадиционных методов борьбы с преступностью. В молодости Фрейдин объездил всю Россию и Европу, общался с людьми самых разных профессий – от квалифицированных психоаналитиков до народных колдунов и гадалок, от признанных ученых до карточных игроков с сомнительной репутацией. В расследовании преступлений Фрейдин опирается на интуицию и использует научные методики, воссоздает биокинетические картины событий, психофизические портреты преступников, прогнозирует действия бандитов. И каждый раз, «залезая в голову» преступника, Фрейдин понимает, что трагедии можно было избежать, и что зачастую человек, нарушивший закон, не мрачный злодей, а запутавшаяся в жизненных обстоятельствах душа.





Качество: SATRip-AVC
Формат: MKV
Видео кодек: H.264
Аудио кодек: AC3
Видео: MPEG4 Video (H264), 720x400, 25fps,1500 Kbps,bit/pixel 0.208
Аудио: AC3 48000Hz, stereo, 192kbps,2 ch

Общее
Уникальный идентификатор : 214565762649367415787056826704761390357 (0xA16BDCDC0C5B4904BD9A346C33DB0515)
Полное имя : E:\Метод Фрейда\01 серия_Метод Фрейда_rip by_Aleksan55.mkv
Формат : Matroska
Версия формата : Version 2
Размер файла : 613 Мбайт
Продолжительность : 50 м.
Общий поток : 1694 Кбит/сек
Дата кодирования : UTC 2017-01-04 23:08:55
Программа кодирования : mkvmerge v7.8.0 ('River Man') 32bit built on Apr 3 2015 12:11:22
Библиотека кодирования : libebml v1.3.1 + libmatroska v1.4.2

Видео
Идентификатор : 1
Формат : AVC
Формат/Информация : Advanced Video Codec
Профиль формата : High@L3.1
Параметр CABAC формата : Да
Параметр ReFrames формата : 14 кадров
Идентификатор кодека : V_MPEG4/ISO/AVC
Продолжительность : 50 м.
Битрейт : 1500 Кбит/сек
Ширина : 720 пикселей
Высота : 400 пикселей
Соотношение сторон : 16:9
Режим частоты кадров : Постоянный
Частота кадров : 25,000 кадров/сек
Цветовое пространство : YUV
Субдискретизация насыщенности : 4:2:0
Битовая глубина : 8 бит
Тип развёртки : Прогрессивная
Бит/(Пиксели*Кадры) : 0.208
Размер потока : 532 Мбайт (87%)
Библиотека кодирования : x264 core 148 r2638 7599210
Настройки программы : cabac=1 / ref=14 / deblock=1:-1:-1 / analyse=0x3:0x133 / me=umh / subme=9 / psy=1 / psy_rd=1.00:0.15 / mixed_ref=0 / me_range=32 / chroma_me=1 / trellis=2 / 8x8dct=1 / cqm=0 / deadzone=21,11 / fast_pskip=0 / chroma_qp_offset=-3 / threads=3 / lookahead_threads=3 / sliced_threads=0 / nr=0 / decimate=0 / interlaced=0 / bluray_compat=0 / constrained_intra=0 / bframes=14 / b_pyramid=2 / b_adapt=1 / b_bias=0 / direct=3 / weightb=1 / open_gop=0 / weightp=2 / keyint=250 / keyint_min=25 / scenecut=40 / intra_refresh=0 / rc_lookahead=70 / rc=2pass / mbtree=1 / bitrate=1500 / ratetol=1.0 / qcomp=0.80 / qpmin=0 / qpmax=40 / qpstep=4 / cplxblur=20.0 / qblur=0.5 / ip_ratio=1.40 / aq=1:1.20
Default : Да
Forced : Нет
Цветовой диапазон : Limited
Основные цвета : BT.601 PAL
Характеристики трансфера : BT.470 System B, BT.470 System G
Коэффициенты матрицы : BT.601

Аудио
Идентификатор : 2
Формат : AC-3
Формат/Информация : Audio Coding 3
Расширение режима : CM (complete main)
Параметр Endianness формата : Big
Идентификатор кодека : A_AC3
Продолжительность : 50 м.
Вид битрейта : Постоянный
Битрейт : 192 Кбит/сек
Каналы : 2 канала
Расположение каналов : Front: L R
Частота : 48,0 КГц
Метод сжатия : С потерями
Размер потока : 69,5 Мбайт (11%)
Default : Да
Forced : Нет



Рекламы нет.
Аватара пользователя
aleksan55
Уважаемый Релизёр-Корсар
 
Месяцев на трекере: 11Месяцев на трекере: 11Месяцев на трекере: 11Месяцев на трекере: 11Месяцев на трекере: 11Месяцев на трекере: 11Месяцев на трекере: 11Месяцев на трекере: 11Месяцев на трекере: 11Месяцев на трекере: 11Месяцев на трекере: 11
 

Награды: 7
За помощь проекту (1) Лучший по количеству кубков (3) За отличные раздачи (3)
  • Торрент
Для скачивания торрента необходимо зарегистрироваться или войти на трекер.

Сообщение kwazar312 » 07 янв 2017, 19:18

Уважаемый aleksan55,большое спасибо за раздачу хорошего фильма.С праздником ВАС,УДАЧИ.
Аватара пользователя
kwazar312
Корсар-Вип
 
Месяцев на трекере: 11Месяцев на трекере: 11Месяцев на трекере: 11Месяцев на трекере: 11Месяцев на трекере: 11Месяцев на трекере: 11Месяцев на трекере: 11Месяцев на трекере: 11Месяцев на трекере: 11Месяцев на трекере: 11Месяцев на трекере: 11
 

Награды: 7
За помощь проекту (1) Лучший по количеству кубков (1) За отличные комментарии (4) Верный Сид (1)

Сообщение verybigpapa » 07 янв 2017, 19:35

Уважаемый aleksan55, большое спасибо. Очень интересный сериальчик. Причем, и первый и второй сезоны. Охлобыстин - красавчик :hi:
Улыбайтесь, господа! Улыбайтесь!
Аватара пользователя
verybigpapa
Корсар-Вип
 
Месяцев на трекере: 11Месяцев на трекере: 11Месяцев на трекере: 11Месяцев на трекере: 11Месяцев на трекере: 11Месяцев на трекере: 11Месяцев на трекере: 11Месяцев на трекере: 11Месяцев на трекере: 11Месяцев на трекере: 11Месяцев на трекере: 11
 

Награды: 5
За помощь проекту (3) За отличные комментарии (1) Верный Сид (1)


Вернуться в Русские сериалы



мониторинг сайтов