logo
Международный русскоязычный
торрент-трекер
Menu

Doublon
Поделиться с друзьями: 
Голосуй за Корсар и получи 400 дублонов
Рейтинг торрент трекеров - UpTracker.ru

Маша и Медведь + Машины сказки + Машкины страшилки / Серии: 01-125 из 125 ( 2009-2018, мультсериал, BDRip 720p, WEB-DL 720p)

Сообщение kisa1980 » 30 июл 2018, 15:32

Название: Маша и Медведь
Год выпуска: 2009-2018
Жанр: Мультсериал, сказка, детский, семейный
Выпущено: Россия, Студия "Анимаккорд"
Продолжительность: 72 x ~ 00:07:00, 26 x ~ 00:06:00, 26 x ~ 00:05:40
Язык: Русский
Режиссер: Олег Ужинов, Денис Червяцов, Марина Нефедова, Олег Кузовков
В ролях: Алина Кукушкина, Эдуард Назаров, Борис Кутневич

Описание: Мультсериал про девочку Машу, которая никому не дает покоя, и в первую очередь — своему другу Медведю. Сериал рассчитан в первую очередь на детскую аудиторию от 3 до 9 лет. Тем не менее мультфильм семейный, интересный для всех возрастов, взрослые тоже могут посмеяться над приключениями Маши и Медведя.



Качество: BDRip 720p, WEB-DL 720p
Видео: MPEG-4 AVC, ~ 4570 Кбит/с, 1280x720
Аудио: AC3, 6 ch, 448 Кбит/с, AC3, 2 ch, 256 Кбит/с, AC3, 2 ch, 192 Кбит/с

Маша и Медведь:
01. Первая встреча
02. Раз, два, три! Ёлочка, гори
03. До весны не будить
04. Ловись рыбка
05. Весна пришла
06. Следы невиданных зверей
07. С волками жить
08. Позвони мне, позвони
09. День варенья
10. Праздник на льду
11. Первый раз в первый класс
12. Граница на замке
13. Кто не спрятался, я не виноват
14. Лыжню
15. Будьте здорОвы
16. Маша + каша
17. Дальний родственник
18. Большая стирка
19. Репетиция оркестра
20. Усатый-полосатый
21. Один дома
22. Дышите! Не дышите
23. Подкидыш!
24. Приятного аппетита
25. Фокус-покус
26. Осторожно, ремонт
27. Картина маслом
28. Ход конём
29. Хит сезона
30. Витамин роста
31. Новая метла
32. Когда все дома
33. Сладкая жизнь
34. Фотография 9х12
35. Трудно быть маленьким
36. Двое на одного
37. Большое путешествие
38. Нынче всё наоборот
39. Сказка на ночь
40. Красота - страшная сила
41. Дело в шляпе
42. День кино
43. Героями не рождаются
44. Раз в году
45. Запутанная история
46. Учитель танцев
47. Крик победы
48. Пещерный медведь
49. Дорогая передача
50. Праздник урожая
51. Неуловимые мстители
52. До новых встреч!
53. На круги своя
54. В гостях у сказки
55. Эх, прокачу
56. Страшно, аж жуть
57. На привале
58. Кошки-мышки
59. Game Over
60. К вашим услугам
61. С любимыми не расставайтесь
62. Спи, моя радость, усни
63. Сюрприз! Сюрприз
64. Три машкетёра
65. Есть контакт
66. Спокойствие, только спокойствие
67. Цирк, да и только
68. Квартет плюс
69. Сколько волка ни корми
70. Звезда с неба
71. Вот такой хоккей!
72. Шарики и кубики
73. Случай на рыбалке

Машины сказки:
01. Волк и семеро козлят
02. Гуси-лебеди
03. Красная шапочка
04. Лиса и заяц
05. Морозко
06. Волк и лиса
07. Вершки и корешки
08. Царевна-лягушка
09. Снегурочка
10. Мальчик с пальчик
11. Крошечка-хаврошечка
12. Бычок смоляной бочок
13. Три поросенка
14. Храбрый портняжка
15. Али-Баба
16. Золушка
17. Калиф-Аист
18. Джек и бобовое зернышко
19. Свинопас
20. Синяя борода
21. По щучьему велению
22. Лисичка со скалочкой
23. Каша из топора
24. Пойди туда - не знаю куда, принеси то - не знаю что
25. Петушок - Золотой гребешок
26. Конек-Горбунок

Машкины Страшилки:
01. Душераздирающая повесть о тёмном лесе и маленьком жучке
02. Жутко-страшное предание о том, как один мальчик боялся умываться
03. Чудовищная быль о том, как некоторые боятся Чудовищ
04. Тревожный сказ о потерявшемся котёнке
05. Кошмарное поверие о новогодних стишках
06. Мрачная притча о суеверной девочке
07. Угрюмый завет о сопливом мальчике
08. О Девочке, которая боялась зверушек
09. Ужасающая история про бабушку и внучка
10. Полный отчаяния миф об исторической ошибке
11. Панически невыносимая легенда о букашках
12. Тревожный сказ про Бабку-Ёжку
13. Зловещая Сага о больном животике и о Девочке, которая боялась докторов
14. Фантастический рассказ о ёжике, мальчике и зелёных гуманоидах
15. Ужасная быль о том, как мальчика перевели в другую школу
16. Жуткая байка про пастушка на пеньке
17. Приводящая в трепет сага о велосипеде - призраке
18. Страшная страшилка о страшилках
19. Жутчайшая повесть о полезных изобретениях
20. Мрачная новелла о мрачных сновидениях
21. Грозная песнь о громе и молнии
22. Чудовищная правда о том, как страшно быть маленьким
23. Леденящая кровь эпопея о радостном событии
24. Чудовищные россказни о высоком и низком
25. Пугающее происшествие в цирке
26. Шокирующая история про девочку, которая всего боялась

Общее
Уникальный идентификатор : 218915179624683920937911268280311407372 (0xA4B187AC3EDE20F9AF2035EEC60EE30C)
Полное имя : Masha i Medved AC3 (720p) - tahiy.mkv
Формат : Matroska
Версия формата : Version 4 / Version 2
Размер файла : 298 Мбайт
Продолжительность : 7 м. 1 с.
Общий поток : 5927 Кбит/сек
Название фильма : - = Rip by tahiy = -
Дата кодирования : UTC 2014-08-24 13:50:24
Программа кодирования : mkvmerge v6.6.0 ('The Edge Of The In Between') built on Dec 1 2013 17:55:00
Библиотека кодирования : libebml v1.3.0 + libmatroska v1.4.1

Видео
Идентификатор : 1
Формат : AVC
Формат/Информация : Advanced Video Codec
Профиль формата : High@L4.1
Параметр CABAC формата : Да
Параметр RefFrames формата : 8 кадров
Идентификатор кодека : V_MPEG4/ISO/AVC
Продолжительность : 7 м. 1 с.
Битрейт : 5484 Кбит/сек
Ширина : 1280 пикселей
Высота : 720 пикселей
Соотношение сторон : 16:9
Режим частоты кадров : Постоянный
Частота кадров : 24,000 кадра/сек
Цветовое пространство : YUV
Субдискретизация насыщенности : 4:2:0
Битовая глубина : 8 бит
Тип развёртки : Прогрессивная
Бит/(Пиксели*Кадры) : 0.248
Размер потока : 270 Мбайт (90%)
Заголовок : - = Rip by tahiy = -
Библиотека кодирования : x264 core 130 r2273 b3065e6
Настройки программы : cabac=1 / ref=8 / deblock=1:-2:-2 / analyse=0x3:0x113 / me=umh / subme=10 / psy=1 / psy_rd=1.00:0.20 / mixed_ref=1 / me_range=32 / chroma_me=1 / trellis=2 / 8x8dct=1 / cqm=0 / deadzone=21,11 / fast_pskip=0 / chroma_qp_offset=-3 / threads=6 / lookahead_threads=1 / sliced_threads=0 / nr=0 / decimate=0 / interlaced=0 / bluray_compat=0 / constrained_intra=0 / bframes=10 / b_pyramid=2 / b_adapt=2 / b_bias=0 / direct=3 / weightb=1 / open_gop=0 / weightp=2 / keyint=240 / keyint_min=23 / scenecut=40 / intra_refresh=0 / rc_lookahead=40 / rc=2pass / mbtree=0 / bitrate=5484 / ratetol=1.0 / qcomp=0.60 / qpmin=0 / qpmax=69 / qpstep=4 / cplxblur=20.0 / qblur=0.5 / vbv_maxrate=50000 / vbv_bufsize=62500 / nal_hrd=none / ip_ratio=1.40 / pb_ratio=1.30 / aq=1:1.00
Язык : Russian
Default : Да
Forced : Нет

Аудио
Идентификатор : 2
Формат : AC-3
Формат/Информация : Audio Coding 3
Параметр Endianness формата : Big
Идентификатор кодека : A_AC3
Продолжительность : 7 м. 1 с.
Вид битрейта : Постоянный
Битрейт : 448 Кбит/сек
Каналы : 6 каналов
Расположение каналов : Front: L C R, Side: L R, LFE
Частота : 48,0 КГц
Частота кадров : 31,250 кадров/сек (1536 SPF)
Битовая глубина : 16 бит
Метод сжатия : С потерями
Размер потока : 22,5 Мбайт (8%)
Заголовок : - = Rip by tahiy = -
Язык : Russian
ServiceKind/String : Complete Main
Default : Да
Forced : Нет
КУБКИ

СТАЖ

МЕДАЛИ
Награды:50

За помощь проекту (7) Лучший по количеству кубков (3) За отличные раздачи и качество (16) За подробное оформление раздач (4) За отличные комментарии (4) Почётный форумчанин (3) Верный Сид (9) За участие в конкурсах/играх (2)

Аватара пользователя
Тортуга
kisa1980
Главный помощник Администратора-Корсар
  • Торрент
Для скачивания торрента необходимо зарегистрироваться или войти на трекер.

Вернуться в Отечественные мультсериалы (HD Video)



Uptime по данным Ping-Admin.Ru - сервиса мониторинга доступности сайтов
Рейтинг@Mail.ru Голосуйте за наш сайт в каталоге Rubo.Ru