logo
Международный русскоязычный
торрент-трекер
Menu
Поделиться с друзьями: 
Голосуй за Корсар и получи 500 дублонов
Рейтинг торрент трекеров - UpTracker.ru

Маша и Медведь. Машины песенки / Серии: 01-13 из 13 (2018-2020, мультсериал, сказка, детский, семейный, WEB-DLRip-AVC) - ExKinoRay

Сообщение Korsarka » 07 июл 2019, 23:44

Название: Маша и Медведь. Машины песенки
Год выпуска: 2018-2020
Жанр: Мультсериал, компьютерная анимация, детский, семейный
Выпущено: Россия, Студия "Анимаккорд"
Режиссер: Денис Червяцов, Ринат Газизов
В ролях: Алина Кукушкина, Эдуард Назаров, Борис Кутневич, Варвара Саранцева

О фильме: В четвёртом сезоне Маша и Медведь - "Машины Песенки" отправляются в кругосветное путешествие. Каждая серия станет яркой музыкальной историей о какой-то отдельной стране, её главных достопримечательностях и культурных особенностях, и, конечно, во всех эпизодах Маша будет петь свои неповторимые песенки! В общем, голубчики, приготовьтесь к захватывающему путешествию: наш маршрут пройдёт через Италию, Германию, Францию, Англию, Японию и другие точки земного шара, где вам обязательно стоит побывать в Машиной компании!

Качество: WEB-DLRip-AVC
Видео: MPEG-4 AVC, ~ 1950 Kbps, 1024x576 (16:9), 25.000 fps
Аудио: AC3, 2.0, 192 Kbps
Продолжительность: 13 х ~ 00:06:30
Язык: Русский

01. Там все любят петь.
02. Последний писк моды
03. Терпение и труд - das ist gut!
04. Делу время, а карнавал раз в год!
05. Секрет Машуко.
06. Из Англии с любовью
07. Опять Новый год!
08. Испанские Мотивы
09. Когда цветут кактусы
10. Почти древнегреческая история
11. Восточные Сказки
12. Однажды на Диком Западе
13. Чай со слоном.

General
Unique ID : 247568536968851049296558210321835069932 (0xBA3FF742D6FF16988BCF653F222F91EC)
Complete name : D:\Mashini.pesenki.AVC.ExKinoRay\01.Tam.vse.lyubiat.petj.AVC.ExKinoRay.mkv
Format : Matroska
Format version : Version 2
File size : 98.6 MiB
Duration : 6 min
Overall bit rate : 2 142 kb/s
Movie name : 01.Про Италию.Там все любят петь! 2018 from ExKinoRay
Encoded date : UTC 2019-07-07 17:07:31
Writing application : mkvmerge v5.6.0 ('Kenya Kane') built on May 27 2012 16:44:04
Writing library : libebml v1.2.3 + libmatroska v1.3.0

Video
ID : 1
Format : AVC
Format/Info : Advanced Video Codec
Format profile : High@L4.1
Format settings, CABAC : Yes
Format settings, ReFrames : 11 frames
Codec ID : V_MPEG4/ISO/AVC
Duration : 6 min
Bit rate : 1 950 kb/s
Width : 1 024 pixels
Height : 576 pixels
Display aspect ratio : 16:9
Frame rate mode : Constant
Frame rate : 25.000 FPS
Color space : YUV
Chroma subsampling : 4:2:0
Bit depth : 8 bits
Scan type : Progressive
Bits/(Pixel*Frame) : 0.132
Stream size : 87.8 MiB (89%)
Title : Enigma
Writing library : x264 core 152 r2851 ba24899
Encoding settings : cabac=1 / ref=11 / deblock=1:-2:-2 / analyse=0x3:0x113 / me=umh / subme=10 / psy=1 / psy_rd=1.05:0.10 / mixed_ref=1 / me_range=32 / chroma_me=1 / trellis=2 / 8x8dct=1 / cqm=0 / deadzone=21,11 / fast_pskip=0 / chroma_qp_offset=-3 / threads=12 / lookahead_threads=3 / sliced_threads=0 / nr=0 / decimate=0 / interlaced=0 / bluray_compat=0 / constrained_intra=0 / bframes=12 / b_pyramid=2 / b_adapt=2 / b_bias=0 / direct=3 / weightb=1 / open_gop=0 / weightp=2 / keyint=250 / keyint_min=25 / scenecut=40 / intra_refresh=0 / rc=2pass / mbtree=0 / bitrate=1950 / ratetol=1.0 / qcomp=0.60 / qpmin=0 / qpmax=51 / qpstep=4 / cplxblur=20.0 / qblur=0.5 / ip_ratio=1.40 / pb_ratio=1.30 / aq=1:1.00
Default : Yes
Forced : No
Color range : Limited
Color primaries : BT.709
Transfer characteristics : BT.709
Matrix coefficients : BT.709

Audio
ID : 2
Format : AC-3
Format/Info : Audio Coding 3
Mode extension : CM (complete main)
Format settings, Endianness : Big
Codec ID : A_AC3
Duration : 6 min
Bit rate mode : Constant
Bit rate : 192 kb/s
Channel(s) : 2 channels
Channel positions : Front: L R
Sampling rate : 44.1 kHz
Frame rate : 28.711 FPS (1536 spf)
Compression mode : Lossy
Stream size : 8.84 MiB (9%)
Language : Russian
Default : Yes
Forced : No




Релиз от:

Автор релиза:
КУБКИ

СТАЖ

МЕДАЛИ
Награды:66

За активную помощь проекту (1) Лучший по количеству кубков (12) За отличные раздачи и качество (28) За подробное оформление раздач (2) За отличные комментарии (8) Почётный форумчанин (2) Верный Сид (10)

Аватара пользователя
Korsarka
Уважаемый Релизёр-Корсар
  • Торрент
Для скачивания торрента необходимо зарегистрироваться или войти на трекер.

Сообщение verybigpapa » 07 июл 2019, 23:56

Уважаемая Korsarka, большое спасибо. :hi: :respect:
Улыбайтесь, господа! Улыбайтесь!
КУБКИ

СТАЖ

МЕДАЛИ
Награды:69

Пожизненный VIP+ (1) За активную помощь проекту (27) Лучший по количеству кубков (9) За отличные раздачи и качество (1) За отличные комментарии (12) Почётный форумчанин (1) Верный Сид (18)

Аватара пользователя
СССР
verybigpapa
Заслуженный Корсар-VIP+

Сообщение Korsarka » 05 июн 2020, 23:11

Добавлены:
7. Опять Новый год!
8. Испанские Мотивы
9. Когда цветут кактусы
10. Почти древнегреческая история
11. Восточные Сказки
КУБКИ

СТАЖ

МЕДАЛИ
Награды:66

За активную помощь проекту (1) Лучший по количеству кубков (12) За отличные раздачи и качество (28) За подробное оформление раздач (2) За отличные комментарии (8) Почётный форумчанин (2) Верный Сид (10)

Аватара пользователя
Korsarka
Уважаемый Релизёр-Корсар

Сообщение Korsarka » 31 июл 2020, 19:51

Добавлены:
12. Однажды на Диком Западе
13. Чай со слоном.
КУБКИ

СТАЖ

МЕДАЛИ
Награды:66

За активную помощь проекту (1) Лучший по количеству кубков (12) За отличные раздачи и качество (28) За подробное оформление раздач (2) За отличные комментарии (8) Почётный форумчанин (2) Верный Сид (10)

Аватара пользователя
Korsarka
Уважаемый Релизёр-Корсар


Вернуться в Отечественные мультсериалы



Рейтинг@Mail.ru