logo
Международный русскоязычный
торрент-трекер
Menu
Поделиться с друзьями: 
Голосуй за Корсар и получи 500 дублонов
Рейтинг торрент трекеров - UpTracker.ru

Маленький великан / The Little Giant (1933, Комедия, криминал, WEB-DL 1080p)

Сообщение al1ksandr » 29 июн 2020, 21:33

Название: Маленький великан
Оригинальное название: The Little Giant
Год выпуска: 1933
Жанр: Комедия, криминал
Режиссер: Рой Дель Рут
В ролях: Эдвард Дж. Робинсон, Мэри Астор, Хелен Винсон, Расселл Хоптон, Кеннет Томсон, Ширли Грэй, Бертон Черчилль, Дон Диллавэй, Луиз Макинтош

О фильме: После отмены «сухого закона» глава гангстеров решает отойти от дел и отправляется тратить нажитые денежки на Западное побережье. Там он по уши влюбляется в белокурую богиню, но оказывается втянут семьей богини в хитро задуманную зловещую сеть обмана. Но наивные калифорнийцы не знали, с кем связались…



Выпущено: США, First National Pictures
Продолжительность: 01:15:36
Перевод: Любительский одноголосый

Качество: WEB-DL 1080p
Видео: MPEG-4 AVC, 9580 Кбит/с, 1440x1080
Аудио 1: Русский (AC3, 2 ch, 224 Кбит/с) | Одноголосый закадровый - (minyaev)
Аудио 2: Английский (AC3, 2 ch, 224 Кбит/с)
Субтитры: Русские, английские




General
Unique ID : 158866946591167258289451998878699285119 (0x7784A934C2FEDD55FF4E3FC44FE2EA7F)
Complete name : The Little Giant (1933) WEB-DL 1080p .mkv
Format : Matroska
Format version : Version 4
File size : 5.40 GiB
Duration : 1 h 15 min
Overall bit rate mode : Variable
Overall bit rate : 10.2 Mb/s
Movie name : The Little Giant (1933)
Encoded date : UTC 2020-06-22 02:36:04
Writing application : mkvmerge v21.0.0 ('Tardigrades Will Inherit The Earth') 64-bit
Writing library : libebml v1.3.5 + libmatroska v1.4.8

Video
ID : 1
Format : AVC
Format/Info : Advanced Video Codec
Format profile : High@L4
Format settings : CABAC / 4 Ref Frames
Format settings, CABAC : Yes
Format settings, Reference frames : 4 frames
Codec ID : V_MPEG4/ISO/AVC
Duration : 1 h 15 min
Bit rate mode : Variable
Bit rate : 9 580 kb/s
Maximum bit rate : 15.0 Mb/s
Width : 1 440 pixels
Height : 1 080 pixels
Display aspect ratio : 1.370
Original display aspect ratio : 4:3
Frame rate mode : Constant
Frame rate : 23.976 (24000/1001) FPS
Color space : YUV
Chroma subsampling : 4:2:0
Bit depth : 8 bits
Scan type : Progressive
Bits/(Pixel*Frame) : 0.257
Stream size : 5.06 GiB (94%)
Writing library : x264 core 148 r2623 d5b2374
Encoding settings : cabac=1 / ref=4 / deblock=1:-1:-1 / analyse=0x3:0x133 / me=umh / subme=9 / psy=1 / psy_rd=1.00:0.15 / mixed_ref=1 / me_range=24 / chroma_me=1 / trellis=2 / 8x8dct=1 / cqm=0 / deadzone=21,11 / fast_pskip=1 / chroma_qp_offset=-3 / threads=34 / lookahead_threads=5 / sliced_threads=0 / nr=150 / decimate=1 / interlaced=0 / bluray_compat=0 / constrained_intra=0 / bframes=8 / b_pyramid=2 / b_adapt=2 / b_bias=0 / direct=3 / weightb=1 / open_gop=0 / weightp=2 / keyint=120 / keyint_min=61 / scenecut=0 / intra_refresh=0 / rc_lookahead=120 / rc=crf / mbtree=1 / crf=18.0 / qcomp=0.60 / qpmin=0 / qpmax=69 / qpstep=4 / vbv_maxrate=15000 / vbv_bufsize=31250 / crf_max=0.0 / nal_hrd=vbr / filler=0 / ip_ratio=1.40 / aq=3:1.00
Language : Russian
Default : Yes
Forced : No
Color range : Limited
Color primaries : BT.709
Transfer characteristics : BT.709
Matrix coefficients : BT.709

Audio #1
ID : 2
Format : AC-3
Format/Info : Audio Coding 3
Commercial name : Dolby Digital
Codec ID : A_AC3
Duration : 1 h 15 min
Bit rate mode : Constant
Bit rate : 224 kb/s
Channel(s) : 2 channels
Channel layout : L R
Sampling rate : 48.0 kHz
Frame rate : 31.250 FPS (1536 SPF)
Compression mode : Lossy
Stream size : 121 MiB (2%)
Title : VO - minyaev
Language : Russian
Service kind : Complete Main
Default : Yes
Forced : No

Audio #2
ID : 3
Format : E-AC-3
Format/Info : Enhanced AC-3
Commercial name : Dolby Digital Plus
Codec ID : A_EAC3
Duration : 1 h 15 min
Bit rate mode : Constant
Bit rate : 224 kb/s
Channel(s) : 2 channels
Channel layout : L R
Sampling rate : 48.0 kHz
Frame rate : 31.250 FPS (1536 SPF)
Compression mode : Lossy
Stream size : 121 MiB (2%)
Language : English
Service kind : Complete Main
Default : No
Forced : No

Audio #3
ID : 4
Format : AC-3
Format/Info : Audio Coding 3
Commercial name : Dolby Digital
Codec ID : A_AC3
Duration : 1 h 15 min
Bit rate mode : Constant
Bit rate : 192 kb/s
Channel(s) : 2 channels
Channel layout : L R
Sampling rate : 48.0 kHz
Frame rate : 31.250 FPS (1536 SPF)
Compression mode : Lossy
Stream size : 104 MiB (2%)
Title : Commentary
Language : English
Service kind : Commentary
Default : No
Forced : No

Text #1
ID : 5
Format : UTF-8
Codec ID : S_TEXT/UTF8
Codec ID/Info : UTF-8 Plain Text
Duration : 1 h 15 min
Bit rate : 131 b/s
Count of elements : 1122
Stream size : 72.7 KiB (0%)
Language : Russian
Default : No
Forced : No

Text #2
ID : 6
Format : UTF-8
Codec ID : S_TEXT/UTF8
Codec ID/Info : UTF-8 Plain Text
Duration : 1 h 14 min
Bit rate : 85 b/s
Count of elements : 1321
Stream size : 46.6 KiB (0%)
Language : English
Default : No
Forced : No

Text #3
ID : 7
Format : UTF-8
Codec ID : S_TEXT/UTF8
Codec ID/Info : UTF-8 Plain Text
Duration : 1 h 14 min
Bit rate : 87 b/s
Count of elements : 1375
Stream size : 47.6 KiB (0%)
Title : SDH
Language : English
Default : No
Forced : No

Menu
00:00:00.000 : en:01. Credits
00:00:53.428 : en:02. No More Mob
00:04:07.747 : en:03. Heavy Thinking
00:08:46.943 : en:04. Brushoff and Tipoff
00:14:26.991 : en:05. Kissoff and Sendoff
00:16:41.125 : en:06. His Money's Worth
00:19:03.976 : en:07. Ten Percent French
00:22:35.312 : en:08. No Excitement
00:25:21.770 : en:09. What a Guy Wears
00:30:09.433 : en:10. Join the Party
00:35:10.775 : en:11. Going with the House
00:38:32.560 : en:12. Only a Servant
00:41:22.355 : en:13. Woman's Angle
00:46:47.596 : en:14. Polo Phonies
00:49:43.105 : en:15. Proposal Rehearsal
00:54:20.674 : en:16. High-Class Business
00:58:48.567 : en:17. Disgracefully Disengaged
01:03:48.992 : en:18. Taken for a Chump
01:08:11.963 : en:19. Bond Salesman
01:12:33.224 : en:20. Bull's-Eye
КУБКИ

СТАЖ

МЕДАЛИ
Награды:56

За активную помощь проекту (4) Лучший по количеству кубков (16) За отличные раздачи и качество (13) За подробное оформление раздач (1) За отличные комментарии (15) Почётный форумчанин (3) Верный Сид (1) За участие в конкурсах/играх (2)

Аватара пользователя
СССР
al1ksandr
Главный Модератор-Корсар
  • Торрент
Для скачивания торрента необходимо зарегистрироваться или войти на трекер.

Вернуться в Классика зарубежного кино (фильмы до 1980 года / HD Video)



Uptime по данным Ping-Admin.Ru - сервиса мониторинга доступности сайтов
Рейтинг@Mail.ru