logo
Международный русскоязычный
торрент-трекер
Menu
Doublon
Поделиться с друзьями: 
Голосуй за Корсар и получи 500 дублонов
Рейтинг торрент трекеров - UpTracker.ru

Мальчишник в Вегасе / The Hangover (2009, комедия, криминал, BDRip-HEVC 1080p)

Сообщение NoMaD » 11 ноя 2019, 13:56

Название: Мальчишник в Вегасе
Оригинальное название: The Hangover
Год выпуска: 2009
Жанр: комедия, криминал
Режиссёр: Тодд Филлипс
В ролях: Брэдли Купер, Эд Хелмс, Зэк Галифианакис, Джастин Барта, Хизер Грэм, Александра Баррези, Джеффри Тэмбор, Кен Жонг, Рэйчел Харрис, Майк Тайсон, Майк Еппс, Джернард Буркс, Роб Риггл, Клео Кинг, Bryan Callen, Мэтт Уолш, Йен Энтони Дэйл, Майкл Ли, Сондра Карри, Джиллиан Вигмэн, Натали Фэй

О фильме: Они мечтали устроить незабываемый мальчишник в Вегасе. Но теперь им действительно необходимо вспомнить, что именно происходило! Чей ребенок сидит в шкафу шикарного номера отеля? Как в ванную попал тигр? Почему у одного из них нет зуба? И, самое главное, куда делся жених?! То, что парни вытворяли на вечеринке, не идет ни в какое сравнение с тем, что им придется сделать на трезвую голову, когда они будут шаг за шагом восстанавливать события прошлой ночи, каждый раз - новая зацепка.



Выпущено: США / Warner Bros.
Продолжительность: 01:39:46
Перевод: Дублированный

Видео кодек: x265
Качество: BDRip-HEVC 1080p
Видео: HEVC, 1920x800, 9314 kb/s, 23.976 кадр/сек, 10 бит
Аудио 1: AC3, 6 ch, 640 Kbps - Русский, (Дублированный)
Аудио 2: AC3, 6 ch, 640 Kbps - Украинский, (Дублированный)
Аудио 3: AC3, 6 ch, 640 Kbps - Английский, (Original)

Субтитры: Русские (форсированные, полные), Английские



Автор: NoMaD
Группа:

General
Unique ID : 276765018808346780491538393746170855945 (0xD03700F454A283F36317A1B92C1A4209)
Complete name : D:DownloadМальчишник в Вегасе (2009).mkv
Format : Matroska
Format version : Version 4
File size : 7.83 GiB
Duration : 1 h 39 min
Overall bit rate : 11.2 Mb/s
Movie name : Мальчишник в Вегасе / The Hangover (2009)
Encoded date : UTC 2019-11-09 02:38:22
Writing application : mkvmerge v38.0.0 ('The Silent Type') 64-bit
Writing library : libebml v1.3.9 + libmatroska v1.5.2
Cover : Yes
Attachments : Cover

Video
ID : 1
Format : HEVC
Format/Info : High Efficiency Video Coding
Format profile : Main 10@L4.1@High
Codec ID : V_MPEGH/ISO/HEVC
Duration : 1 h 39 min
Bit rate : 9 314 kb/s
Width : 1 920 pixels
Height : 800 pixels
Display aspect ratio : 2.40:1
Frame rate mode : Constant
Frame rate : 23.976 (24000/1001) FPS
Color space : YUV
Chroma subsampling : 4:2:0
Bit depth : 10 bits
Bits/(Pixel*Frame) : 0.253
Stream size : 6.49 GiB (83%)
Title : The Hangover
Writing library : x265 3.2+5-354901970679:[Windows][clang 8.0.1][64 bit] 10bit
Encoding settings : cpuid=1111039 / frame-threads=9 / numa-pools=8 / wpp / no-pmode / no-pme / no-psnr / no-ssim / log-level=3 / input-csp=1 / input-res=1920x800 / interlace=0 / total-frames=0 / level-idc=41 / high-tier=1 / uhd-bd=0 / ref=5 / allow-non-conformance / no-repeat-headers / annexb / aud / no-hrd / info / hash=0 / no-temporal-layers / open-gop / min-keyint=23 / keyint=240 / gop-lookahead=0 / bframes=10 / b-adapt=2 / b-pyramid / bframe-bias=0 / rc-lookahead=60 / lookahead-slices=4 / scenecut=40 / radl=0 / no-splice / no-intra-refresh / ctu=32 / min-cu-size=8 / rect / amp / max-tu-size=32 / tu-inter-depth=4 / tu-intra-depth=4 / limit-tu=0 / rdoq-level=2 / dynamic-rd=0.00 / no-ssim-rd / signhide / no-tskip / nr-intra=0 / nr-inter=0 / no-constrained-intra / no-strong-intra-smoothing / max-merge=5 / limit-refs=3 / limit-modes / me=3 / subme=7 / merange=57 / temporal-mvp / no-frame-dup / no-hme / weightp / weightb / no-analyze-src-pics / deblock=-3:-3 / no-sao / no-sao-non-deblock / rd=6 / selective-sao=0 / no-early-skip / no-rskip / no-fast-intra / no-tskip-fast / no-cu-lossless / no-b-intra / no-splitrd-skip / rdpenalty=0 / psy-rd=2.00 / psy-rdoq=1.00 / no-rd-refine / no-lossless / cbqpoffs=0 / crqpoffs=0 / rc=crf / crf=20.0 / qcomp=0.70 / qpstep=4 / stats-write=0 / stats-read=0 / vbv-maxrate=50000 / vbv-bufsize=50000 / vbv-init=0.9 / crf-max=30.0 / crf-min=0.0 / ipratio=1.40 / pbratio=1.30 / aq-mode=3 / aq-strength=1.00 / no-cutree / zone-count=0 / no-strict-cbr / qg-size=32 / no-rc-grain / qpmax=69 / qpmin=0 / no-const-vbv / sar=1 / overscan=0 / videoformat=5 / range=0 / colorprim=1 / transfer=1 / colormatrix=1 / chromaloc=0 / display-window=0 / cll=0,0 / min-luma=0 / max-luma=1023 / log2-max-poc-lsb=8 / vui-timing-info / vui-hrd-info / slices=1 / no-opt-qp-pps / no-opt-ref-list-length-pps / no-multi-pass-opt-rps / scenecut-bias=0.05 / no-opt-cu-delta-qp / aq-motion / no-hdr / no-hdr-opt / no-dhdr10-opt / no-idr-recovery-sei / analysis-reuse-level=5 / scale-factor=0 / refine-intra=0 / refine-inter=0 / refine-mv=1 / refine-ctu-distortion=0 / no-limit-sao / ctu-info=0 / no-lowpass-dct / refine-analysis-type=0 / copy-pic=1 / max-ausize-factor=1.0 / no-dynamic-refine / no-single-sei / no-hevc-aq / no-svt / no-field / qp-adaptation-range=1.00
Language : English
Default : Yes
Forced : No
Color range : Limited
Color primaries : BT.709
Transfer characteristics : BT.709
Matrix coefficients : BT.709

Audio #1
ID : 2
Format : AC-3
Format/Info : Audio Coding 3
Commercial name : Dolby Digital
Codec ID : A_AC3
Duration : 1 h 39 min
Bit rate mode : Constant
Bit rate : 640 kb/s
Channel(s) : 6 channels
Channel layout : L R C LFE Ls Rs
Sampling rate : 48.0 kHz
Frame rate : 31.250 FPS (1536 SPF)
Compression mode : Lossy
Stream size : 457 MiB (6%)
Title : Дубляж
Language : Russian
Service kind : Complete Main
Default : Yes
Forced : No

Audio #2
ID : 3
Format : AC-3
Format/Info : Audio Coding 3
Commercial name : Dolby Digital
Codec ID : A_AC3
Duration : 1 h 39 min
Bit rate mode : Constant
Bit rate : 640 kb/s
Channel(s) : 6 channels
Channel layout : L R C LFE Ls Rs
Sampling rate : 48.0 kHz
Frame rate : 31.250 FPS (1536 SPF)
Compression mode : Lossy
Stream size : 457 MiB (6%)
Title : Дубляж
Language : Ukrainian
Service kind : Complete Main
Default : No
Forced : No

Audio #3
ID : 4
Format : AC-3
Format/Info : Audio Coding 3
Commercial name : Dolby Digital
Codec ID : A_AC3
Duration : 1 h 39 min
Bit rate mode : Constant
Bit rate : 640 kb/s
Channel(s) : 6 channels
Channel layout : L R C LFE Ls Rs
Sampling rate : 48.0 kHz
Frame rate : 31.250 FPS (1536 SPF)
Compression mode : Lossy
Stream size : 457 MiB (6%)
Title : Original
Language : English
Service kind : Complete Main
Default : No
Forced : No

Text #1
ID : 5
Format : UTF-8
Codec ID : S_TEXT/UTF8
Codec ID/Info : UTF-8 Plain Text
Duration : 1 h 25 min
Bit rate : 0 b/s
Count of elements : 9
Stream size : 276 Bytes (0%)
Title : Forced
Language : Russian
Default : Yes
Forced : Yes

Text #2
ID : 6
Format : UTF-8
Codec ID : S_TEXT/UTF8
Codec ID/Info : UTF-8 Plain Text
Duration : 1 h 35 min
Bit rate : 124 b/s
Count of elements : 1504
Stream size : 87.1 KiB (0%)
Title : Full
Language : Russian
Default : No
Forced : No

Text #3
ID : 7
Format : UTF-8
Codec ID : S_TEXT/UTF8
Codec ID/Info : UTF-8 Plain Text
Duration : 1 h 35 min
Bit rate : 68 b/s
Count of elements : 967
Stream size : 47.6 KiB (0%)
Title : Full
Language : English
Default : No
Forced : No

Menu
00:00:00.000 : en:00:00:00.000
00:03:43.390 : en:00:03:43.390
00:09:15.013 : en:00:09:15.013
00:14:10.183 : en:00:14:10.183
00:18:59.221 : en:00:18:59.221
00:23:19.023 : en:00:23:19.023
00:28:59.696 : en:00:28:59.696
00:34:03.375 : en:00:34:03.375
00:37:03.596 : en:00:37:03.596
00:39:53.975 : en:00:39:53.975
00:42:51.194 : en:00:42:51.194
00:47:34.977 : en:00:47:34.977
00:52:08.375 : en:00:52:08.375
00:57:48.173 : en:00:57:48.173
01:01:08.999 : en:01:01:08.999
01:05:28.258 : en:01:05:28.258
01:07:57.991 : en:01:07:57.991
01:12:32.431 : en:01:12:32.431
01:16:24.079 : en:01:16:24.079
01:22:40.164 : en:01:22:40.164
01:25:50.062 : en:01:25:50.062
01:30:21.625 : en:01:30:21.625
01:32:48.188 : en:01:32:48.188
01:36:00.880 : en:01:36:00.880

КУБКИ

СТАЖ

МЕДАЛИ
Награды:8

За помощь проекту в 100 рублей (1) За отличные раздачи и качество (1) Почётный форумчанин (1)

Аватара пользователя
NoMaD
Релизёр-Корсар
  • Торрент
Для скачивания торрента необходимо зарегистрироваться или войти на трекер.

Сообщение kwazar312 » 14 ноя 2019, 16:17

Кинокомедия «Мальчишник в Вегасе», премьера состоялась в 2009 году. Режиссером картины выступил Тодд Филлипс, а сценаристами стали Джон Лукас и Скотт Мур. Главные роли сыграли хорошо известные актеры Эд Хелмс, Джастин Барта и Брэдли Купер. Эта веселая комедия станет отличным лекарством от скуки и хандры. Не умолкающие искрометные шутки, иногда пошлый юмор, динамичный и драйвовый сюжет отвлекут вас от всех повседневных проблем.
Сюжет фильма «Мальчишник в Вегасе»: Даг — будущий жених устраивает мальчишник, взяв с собой парочку своих друзей (Фила и Стю) и брата невесты (Алана). Компания парней отправляется в Вегас, чтобы весело провести ночку. Утро после мальчишника приносит много неприятных сюрпризов: у Стю не хватает одного зуба, в ванной комнате сидит тигр, в номере отеля царит полнейший хаус, в шкафу лежит чей то грудной ребенок, а из комнаты в комнату бегает курица! Но самый главный сюрприз — пропажа жениха. Компания пытается вспомнить прошлые события и найти друга...
Спасибо за раздачу,уважаемый NoMaD.
:hi: :victory: :-drinks:
КУБКИ

СТАЖ

МЕДАЛИ
Награды:133

За активную помощь проекту (13) Лучший по количеству кубков (40) За отличные раздачи и качество (3) За отличные комментарии (22) Почётный форумчанин (4) Верный Сид (45) За участие в конкурсах/играх (6)

Аватара пользователя
kwazar312
Заслуженный Корсар-Вип


Вернуться в Фильмы HEVC (HEVC Video)



Uptime по данным Ping-Admin.Ru - сервиса мониторинга доступности сайтов
Рейтинг@Mail.ru