logo
Международный русскоязычный
торрент-трекер
Menu
Поделиться с друзьями: 
Голосуй за Корсар и получи 500 дублонов
Рейтинг торрент трекеров - UpTracker.ru

Махинаторы / Schemers (2020, Комедия, биография, криминал, WEB-DL 1080p) | iTunes

Сообщение al1ksandr » 01 авг 2020, 00:52

Название: Махинаторы
Оригинальное название: Schemers
Год выхода: 2020
Жанр: Комедия, биография, криминал
Режиссер: Дэйв Маклин
В ролях: Конор Берри, Шон Коннор, Грант Роберт Килен, Тара Ли, Кит Кларк, Блэр Робертсон, Мингус Джонстон, Пола Мастертон, Кэролин Боннимэн, Ричард Мэйсон

О фильме: Ранние 1980-е. Дэйви, молодой авантюрист из Шотландии, решает стать музыкальным продюсером. В то время по миру гремит с успехом английская группа Iron Maiden. Не имея никакого опыта в этой отрасли, но вооружившись оптимизмом что бы покорить Великобританию, он решает пригласить сразу их. Проблема в том, что за деньгами для амбициозного стартапа приходится обращаться к бандитам…



Страна: Великобритания
Студия: Schemers Film
Продолжительность: 01:30:29
Перевод: Профессиональный многоголосый | iTunes

Качество: WEB-DL 1080p
Видео: MPEG-4 AVC, 1920x800, 4579 Kbit/s, 24.000 fps
Аудио #01: 48 kHz, AC3, 5.1, 384 Kbps | iTunes | RUS |
Субтитры: Отсутствуют


General
Unique ID : 287677149458114174458789093956743367557 (0xD86C9A8886DFC6B9D656A32EA5C08B85)
Complete name : E:Video111Schemers.2020.WEB-DL.1080p.seleZen.mkv
Format : Matroska
Format version : Version 4
File size : 3.14 GiB
Duration : 1 h 30 min
Overall bit rate : 4 965 kb/s
Movie name : Schemers 2020 from селезень
Encoded date : UTC 2020-07-31 20:01:49
Writing application : mkvmerge v40.0.0 ('Old Town Road + Pony') 64-bit
Writing library : libebml v1.3.9 + libmatroska v1.5.2
Cover : Yes
Attachments : cover.jpg

Video
ID : 1
Format : AVC
Format/Info : Advanced Video Codec
Format profile : High@L4
Format settings : CABAC / 5 Ref Frames
Format settings, CABAC : Yes
Format settings, Reference frames : 5 frames
Codec ID : V_MPEG4/ISO/AVC
Duration : 1 h 30 min
Bit rate : 4 579 kb/s
Width : 1 920 pixels
Height : 800 pixels
Display aspect ratio : 2.40:1
Frame rate mode : Constant
Frame rate : 24.000 FPS
Color space : YUV
Chroma subsampling : 4:2:0
Bit depth : 8 bits
Scan type : Progressive
Bits/(Pixel*Frame) : 0.124
Stream size : 2.89 GiB (92%)
Language : English
Default : Yes
Forced : No
Color range : Limited
Color primaries : BT.709
Transfer characteristics : BT.709
Matrix coefficients : BT.709

Audio
ID : 2
Format : AC-3
Format/Info : Audio Coding 3
Commercial name : Dolby Digital
Codec ID : A_AC3
Duration : 1 h 30 min
Bit rate mode : Constant
Bit rate : 384 kb/s
Channel(s) : 6 channels
Channel layout : L R C LFE Ls Rs
Sampling rate : 48.0 kHz
Frame rate : 31.250 FPS (1536 SPF)
Compression mode : Lossy
Stream size : 249 MiB (8%)
Title : iTunes
Language : Russian
Service kind : Complete Main
Default : Yes
Forced : Yes

Menu
00:00:00.000 : en:Глава 1
00:06:35.583 : en:Глава 2
00:13:07.124 : en:Глава 3
00:18:51.789 : en:Глава 4
00:24:02.079 : en:Глава 5
00:32:07.704 : en:Глава 6
00:42:15.204 : en:Глава 7
00:48:12.204 : en:Глава 8
00:54:51.079 : en:Глава 9
01:04:08.287 : en:Глава 10
01:13:51.452 : en:Глава 11
01:18:41.327 : en:Глава 12
01:25:45.284 : en:Глава 13


Релиз от:
КУБКИ

СТАЖ

МЕДАЛИ
Награды:56

За активную помощь проекту (4) Лучший по количеству кубков (16) За отличные раздачи и качество (13) За подробное оформление раздач (1) За отличные комментарии (15) Почётный форумчанин (3) Верный Сид (1) За участие в конкурсах/играх (2)

Аватара пользователя
СССР
al1ksandr
Главный Модератор-Корсар
  • Торрент
Для скачивания торрента необходимо зарегистрироваться или войти на трекер.

Вернуться в Зарубежное кино (2011-2020 / HD Video)



Рейтинг@Mail.ru