logo
Международный русскоязычный
торрент-трекер
Menu

Doublon
Поделиться с друзьями: 
Голосуй за Корсар и получи 400 дублонов
Рейтинг торрент трекеров - UpTracker.ru

Львиное сердце / Lionheart (1987, Драма, приключения, WEB-DL 1080p) - KORSAR

Сообщение MZMA » 22 сен 2018, 03:29

Название: Львиное сердце
Оригинальное название: Lionheart
Год выпуска: 1987
Выпущено: США, Венгрия, Hungaro, Mafilm, TaliaFilm II Productions
Жанр: Драма, приключения
Режиссер: Франклин Дж. Шаффнер
В ролях: Эрик Штольц, Гэбриел Бирн, Николя Каупер, Декстер Флетчер, Дебора Мур, Николас Клэй, Брюс Парчес, Нил Диксон, Пенни Дауни, Надим Савалха, Джон Фрэнклин-Роббинс, Крис Питт, Мэттью Сим, Пол Рис, Сэмми Дэвис, Уэйн Годдар, Патрик Даркин, Халук Бильгинер, Ральф Майкл, Бэрри Стэнтон, Жан Уотерс, Энн Фёрбэнк

О фильме: Юный рыцарь Роберт, отчаявшийся вернуть себе отцовское наследство, на которое незаконно посягают сразу несколько претендентов, обращает свой взор на восток. Он надеется завоевать себе славу и богатство, присоединившись к королю Львиное сердце. На своем нелегком пути в Святую землю он встречает группу детей, скрывающуюся от Черного рыцаря, промышляющего похищениями и работорговлей. Юный Роберт, которого дети принимают за самого короля Ричарда I, становится во главе этого небольшого отряда, чтобы вести его в Святую землю...



Продолжительность: 01:44:20
Перевод: Авторский
Субтитры: Английские

Качество: WEB-DL 1080p
Видео: MPEG-4 AVC, 12,1 Мбит/сек, 1920x816, 23,976 кадра/сек
Аудио #1: AC3, 2 ch, 192 Кбит/сек | Русский, авторский (одноголосый закадровый) Андрей Дольский
Аудио #2: EAC3, 2 ch, 224 Кбит/сек | Английский, оригинал

Сборка:


Общее
Уникальный идентификатор : 171839262545274937180064916916172599064 (0x814709C3437D116C812C9458A451AF18)
Полное имя : Львиное.сердце.1987.WEB-DL.1080p.mkv
Формат : Matroska
Версия формата : Version 2
Размер файла : 9,34 Гбайт
Продолжительность : 1 ч. 44 м.
Режим общего битрейта : Переменный
Общий поток : 12,8 Мбит/сек
Дата кодирования : UTC 2018-09-21 23:55:15
Программа кодирования : mkvmerge v5.8.0 ('No Sleep / Pillow') built on Sep 2 2012 15:37:04
Библиотека кодирования : libebml v1.2.3 + libmatroska v1.3.0

Видео
Идентификатор : 1
Формат : AVC
Формат/Информация : Advanced Video Codec
Профиль формата : High@L4
Настройки формата : CABAC / 4 Ref Frames
Параметр CABAC формата : Да
Параметр RefFrames формата : 4 кадра
Идентификатор кодека : V_MPEG4/ISO/AVC
Продолжительность : 1 ч. 44 м.
Вид битрейта : Переменный
Битрейт : 12,1 Мбит/сек
Максимальный битрейт : 15,0 Мбит/сек
Ширина : 1920 пикселей
Высота : 816 пикселей
Соотношение сторон : 2,35:1
Соотношение сторон в оригинале : 2,35:1
Режим частоты кадров : Постоянный
Частота кадров : 23,976 (24000/1001) кадра/сек
Цветовое пространство : YUV
Субдискретизация насыщенности : 4:2:0
Битовая глубина : 8 бит
Тип развёртки : Прогрессивная
Бит/(Пиксели*Кадры) : 0.323
Размер потока : 8,85 Гбайт (95%)
Библиотека кодирования : x264 core 148 r2623 d5b2374
Настройки программы : cabac=1 / ref=4 / deblock=1:-1:-1 / analyse=0x3:0x133 / me=umh / subme=9 / psy=1 / psy_rd=1.00:0.15 / mixed_ref=1 / me_range=24 / chroma_me=1 / trellis=2 / 8x8dct=1 / cqm=0 / deadzone=21,11 / fast_pskip=1 / chroma_qp_offset=-3 / threads=25 / lookahead_threads=4 / sliced_threads=0 / nr=150 / decimate=1 / interlaced=0 / bluray_compat=0 / constrained_intra=0 / bframes=8 / b_pyramid=2 / b_adapt=2 / b_bias=0 / direct=3 / weightb=1 / open_gop=0 / weightp=2 / keyint=120 / keyint_min=61 / scenecut=0 / intra_refresh=0 / rc_lookahead=120 / rc=crf / mbtree=1 / crf=18.0 / qcomp=0.60 / qpmin=0 / qpmax=69 / qpstep=4 / vbv_maxrate=15000 / vbv_bufsize=31250 / crf_max=0.0 / nal_hrd=vbr / filler=0 / ip_ratio=1.40 / aq=3:1.00
Язык : English
По умолчанию : Да
Принудительно : Нет
Цветовой диапазон : Limited
Основные цвета : BT.709
Характеристики трансфера : BT.709
Коэффициенты матрицы : BT.709

Аудио #1
Идентификатор : 2
Формат : AC-3
Формат/Информация : Audio Coding 3
Идентификатор кодека : A_AC3
Продолжительность : 1 ч. 44 м.
Вид битрейта : Постоянный
Битрейт : 192 Кбит/сек
Каналы : 2 канала
Расположение каналов : Front: L R
Частота : 48,0 КГц
Частота кадров : 31,250 кадров/сек (1536 SPF)
Битовая глубина : 16 бит
Метод сжатия : С потерями
Размер потока : 143 Мбайт (1%)
Заголовок : AVO | А. Дольский
Язык : Russian
По умолчанию : Да
Принудительно : Нет

Аудио #2
Идентификатор : 3
Формат : E-AC-3
Формат/Информация : Enhanced Audio Coding 3
Идентификатор кодека : A_EAC3
Продолжительность : 1 ч. 44 м.
Вид битрейта : Постоянный
Битрейт : 224 Кбит/сек
Каналы : 2 канала
Расположение каналов : Front: L R
Частота : 48,0 КГц
Частота кадров : 187,500 кадров/сек (256 SPF)
Метод сжатия : С потерями
Размер потока : 167 Мбайт (2%)
Заголовок : Original
Язык : English
По умолчанию : Нет
Принудительно : Нет

Текст #1
Идентификатор : 4
Формат : UTF-8
Идентификатор кодека : S_TEXT/UTF8
Идентификатор кодека/Информация : UTF-8 Plain Text
Язык : English
По умолчанию : Нет
Принудительно : Нет

Текст #2
Идентификатор : 5
Формат : UTF-8
Идентификатор кодека : S_TEXT/UTF8
Идентификатор кодека/Информация : UTF-8 Plain Text
Заголовок : SDH
Язык : English
По умолчанию : Нет
Принудительно : Нет

• Исходник видео WEB-DL Amazon.
КУБКИ

СТАЖ

МЕДАЛИ
Награды:78

За помощь проекту (3) Лучший по количеству кубков (6) За отличные раздачи и качество (44) За подробное оформление раздач (11) Верный Сид (12)

Аватара пользователя
СССР
MZMA
Главный Модератор-Корсар
Раздачи группы KORSAR разрешено перезаливать спустя сутки после публикации
  • Торрент
Для скачивания торрента необходимо зарегистрироваться или войти на трекер.

Вернуться в Зарубежное кино (1981-1990)



Uptime по данным Ping-Admin.Ru - сервиса мониторинга доступности сайтов
Рейтинг@Mail.ru Голосуйте за наш сайт в каталоге Rubo.Ru