logo
Международный русскоязычный
торрент-трекер
Menu

Магазин-KorsaRDoublon

Поделиться с друзьями: 
Голосуй и получи дублоны
Рейтинг торрент трекеров - UpTracker.ru

Людмила Чурсина.Творческий вечер. (2011, Документальный, биографический, IPTVRemux)

Сообщение BladeSangre » 08 авг 2016, 03:29

Людмила Чурсина.Творческий вечер. 20.07.11
Дата эфира: 22.07.2011
Страна: Россия
Жанр: Документальный, биографический
Продолжительность: 00:51:47

Режиссер телеверсии: Елена Никитан

Описание: Телеверсия творческого вечера в Государственном театре киноактера.
Ведущий вечера Вадим Верник.

Народная артистка СССР Людмила Чурсина рассказывает о себе, отвечает на вопросы ведущего и зрителей, читает стихи Анны Ахматовой, Марины Цветаевой, Александра Блока. В вечере принимают участие: "Вивальди-оркестр" под управлением Светланы Безродной, Леон Кукулян, Игорь Верник. Использованы фрагменты фильмов и сцены из спектаклей: "Журавушка", "Виринея", "Любовь Яровая", "Идеальный муж".
Людмила Чурсина. Воплощение волшебства

"Оригинальную красоту ее лица, раз его увидев, нельзя было позабыть, но трудно было, даже привыкнув к нему, его описать. Прелесть его заключалась в этих больших, блестящих, темных глазах, которым тонкие, надломленные посередине брови придавали неуловимый оттенок лукавства, властности и наивности…", – так описывал Александр Куприн свою Олесю. Такой в 1970 году увидели зрители в экранизации этой повести Людмилу Чурсину. К моменту выхода этого фильма на широкий экран актриса уже была известна: в 1969 году по итогам опроса журнала "Советский экран" она была названа лучшей актрисой года.

Сергей Лаврентьев, кинокритик: «Людмила Чурсина появилась в нашем кино в начале 60-х годов, в фильмах, которые запомнились сразу: "Когда деревья были большими", "Утренние поезда", "Донская повесть" - и не в проходных ролях. Но ее как-то не воспринимали как большую, настоящую актрису. Все изменилось весной 1969 года, когда в марте появилась "Виринея" , в апреле – "Журавушка", а по телевизору показывали, бесконечно повторяя, любимую народом экранизацию "Угрюм-реки" Вячеслава Шишкова. И все вдруг поняли в одночасье, что перед ними не просто хорошая актриса – таких было много, – перед ними подлинная звезда советского экрана. Ведь чем отличается хороший актер от звезды? Красота должна быть и у одного, и у другого, талант – тоже. Но у звезды должно быть что-то магическое: кино – это же вообще волшебство. И вот человек, который это волшебство воплощает, это и есть подлинная звезда».

20 июля 2011 года Людмила Алексеевна Чурсина отмечает юбилей. Дню рождения актрисы телеканал «Россия - Культура» посвящает показ ее творческого вечера в Государственном театре киноактера. Смотрите 22 июля в 21:05.

Доп. информация
: между 00:15:03 и 00:15:04 отсутствует примерно 30 секунд, по причине потери сигнала.

Качество: IPTVRemux
Формат: MPG
Видео кодек: MPEG2
Аудио кодек: MP2
Видео: MPEG Video, 704х576 (4:3), ~1 700 Kbps, 25 fps
Аудио: MPEG Audio, 128 Kbps, 48.0 KHz, 2 ch
Код: Выделить всё
General
ID                               : 16 (0x10)
Complete name                    : Людмила Чурсина.Творческий вечер 20.07.11.mpg
Format                           : MPEG-TS
File size                        : 713 MiB
Duration                         : 51mn 47s
Overall bit rate                 : 1 925 Kbps

Video
ID                               : 1103 (0x44F)
Menu ID                          : 3 (0x3)
Format                           : MPEG Video
Format version                   : Version 2
Format profile                   : Main@Main
Format settings, BVOP            : Yes
Format settings, Matrix          : Custom
Format settings, GOP             : M=3, N=24
Codec ID                         : 2
Duration                         : 51mn 48s
Bit rate mode                    : Variable
Bit rate                         : 1 700 Kbps
Nominal bit rate                 : 15.0 Mbps
Width                            : 704 pixels
Height                           : 576 pixels
Display aspect ratio             : 4:3
Frame rate                       : 25.000 fps
Standard                         : PAL
Color space                      : YUV
Chroma subsampling               : 4:2:0
Bit depth                        : 8 bits
Scan type                        : Interlaced
Scan order                       : Top Field First
Compression mode                 : Lossy
Bits/(Pixel*Frame)               : 0.168
Stream size                      : 630 MiB (88%)
Writing library                  : (c) 1998-2010 Womble Multimedia, Inc. / MPEG Video Wizard DVD 5.0.0.114 (01/2010) / Nov 13 2010

Audio
ID                               : 2103 (0x837)
Menu ID                          : 3 (0x3)
Format                           : MPEG Audio
Format version                   : Version 1
Format profile                   : Layer 2
Codec ID                         : 3
Duration                         : 51mn 48s
Bit rate mode                    : Constant
Bit rate                         : 128 Kbps
Channel(s)                       : 2 channels
Sampling rate                    : 48.0 KHz
Compression mode                 : Lossy
Stream size                      : 47.4 MiB (7%)


Умей принудить сердце, нервы, тело \ Тебе служить, когда в твоей груди \ Уже давно все пусто, все сгорело \ И только Воля говорит: «Иди!»...
Аватара пользователя
BladeSangre
Главный Модератор-Корсар
 
Месяцев на трекере: 9Месяцев на трекере: 9Месяцев на трекере: 9Месяцев на трекере: 9Месяцев на трекере: 9Месяцев на трекере: 9Месяцев на трекере: 9Месяцев на трекере: 9Месяцев на трекере: 9
 

Награды: 1
За развитие форума (1)
  • Торрент
Для скачивания торрента необходимо зарегистрироваться или войти на трекер.

Вернуться в Бенефис. Мастера искусств отечественного Театра и Кино



мониторинг сайтов