logo
Международный русскоязычный
торрент-трекер
Menu
Поделиться с друзьями: 
Голосуй за Корсар и получи 500 дублонов
Рейтинг торрент трекеров - UpTracker.ru

Любовные похождения блондинки / Loves of a Blonde / Lásky jedné plavovlásky (1965, Драма, комедия, DVDRip-AVC) - KORSAR

Сообщение Cthulhu » 04 июн 2019, 23:52

Название: Любовные похождения блондинки
Оригинальное название: Loves of a Blonde / Lásky jedné plavovlásky
Год выхода: 1965
Жанр: драма, комедия
Режиссер: Милош Форман
В ролях: Хана Брейхова, Владимир Пухолт, Владимир Меншик, Иван Кейл, Иржи Грубы, Милада Ежкова, Йозеф Шебанек, Йозеф Колб, Мари Салачова, Яна Новакова, Тана Зелинкова, Ян Вострчил...

О фильме: В провинциальном чешском городке Зруче две тысячи девушек и женщин работают на обувной фабрике. На каждого мужчину приходится 16 девушек. Но так как дело происходит в социалистической Чехословакии, то уравнивать баланс между полами приходится усилиями директора фабрики. Благодаря личным связям и краснобайству он добивается того, чтобы гарнизон армейских запасников посетил индустриальный городок. Под такое событие в местной гостинице устраивается что-то вроде корпоративной вечеринки на социалистический лад. Директор фабрики сродни гуманному сутенеру подсаживает возрастных лысеющих солдат в очках за столик к скромным фабричным девушкам.



Страна: Чехословакия
Студия: Filmové Studio Barrandov, CBK
Продолжительность: 01:25:05
Перевод: Профессиональный многоголосый

Качество: DVDRip-AVC
Видео: MPEG-4 AVC, 702x478@702x537, 25 fps, 4083 Кбит/с
Звук:
Аудио1: Русская, AC3 192 Кбит/сек, 2 канала(ов),16bit 48,0 КГц Многоголосый
Аудио5: Czech, AC3 192 Кбит/сек, 1 канала(ов),16bit 48,0 КГц Original
Субтитры: Русские, English
Навигация по главам: Есть

x264 [info]: frame I:681 Avg QP:17.90 size: 72215
x264 [info]: frame P:25297 Avg QP:19.42 size: 48362
x264 [info]: frame B:101662 Avg QP:21.69 size: 13117
x264 [info]: consecutive B-frames: 1.1% 0.7% 3.4% 15.8% 27.8% 43.3% 6.0% 0.9% 0.3% 0.1% 0.1% 0.0% 0.1% 0.2% 0.0% 0.3% 0.0%

General
Unique ID : 99170611840519724367102782276797236185 (0x4A9B90AA0B9BA516F911929BA59083D9)
Complete name : S:\FILMS\Любовные похождения блондинки - Loves of a Blonde (1965) DVDRip-AVC - KORSAR.mkv
Format : Matroska
Format version : Version 4
File size : 2.66 GiB
Duration : 1 h 25 min
Overall bit rate : 4 470 kb/s
Encoded date : UTC 2019-06-04 17:37:15
Writing application : mkvmerge v33.1.0 ('Primrose') 64-bit
Writing library : libebml v1.3.7 + libmatroska v1.5.0
Cover : Yes
Attachments : cover3.jpeg

Video
ID : 1
Format : AVC
Format/Info : Advanced Video Codec
Format profile : High@L4.1
Format settings : CABAC / 16 Ref Frames
Format settings, CABAC : Yes
Format settings, Reference : 16 frames
Codec ID : V_MPEG4/ISO/AVC
Duration : 1 h 25 min
Bit rate : 4 083 kb/s
Width : 702 pixels
Height : 478 pixels
Display aspect ratio : 4:3
Original display aspect rat : 4:3
Frame rate mode : Constant
Frame rate : 25.000 FPS
Color space : YUV
Chroma subsampling : 4:2:0
Bit depth : 8 bits
Scan type : Progressive
Bits/(Pixel*Frame) : 0.487
Stream size : 2.43 GiB (91%)
Writing library : x264 core 152 r2851kMod ba24899
Encoding settings : cabac=1 / ref=16 / deblock=1:-2:-1 / analyse=0x3:0x133 / me=umh / subme=11 / psy=1 / fade_compensate=0.00 / psy_rd=1.00:0.03 / mixed_ref=1 / me_range=48 / chroma_me=1 / trellis=2 / 8x8dct=1 / cqm=0 / deadzone=21,11 / fast_pskip=1 / chroma_qp_offset=-3 / threads=15 / lookahead_threads=3 / sliced_threads=0 / nr=0 / decimate=1 / interlaced=0 / bluray_compat=0 / constrained_intra=0 / bframes=16 / b_pyramid=2 / b_adapt=2 / b_bias=0 / direct=1 / weightb=1 / open_gop=0 / weightp=2 / keyint=250 / keyint_min=25 / scenecut=40 / intra_refresh=0 / rc_lookahead=60 / rc=crf / mbtree=0 / crf=17.5000 / qcomp=0.62 / qpmin=0 / qpmax=39 / qpstep=4 / vbv_maxrate=50000 / vbv_bufsize=62500 / crf_max=0.0 / nal_hrd=none / filler=0 / ip_ratio=1.40 / pb_ratio=1.30 / aq=2:0.80
Language : Czech
Default : Yes
Forced : No
Color range : Limited
Color primaries : BT.601 NTSC
Transfer characteristics : BT.601
Matrix coefficients : BT.601

Audio #1
ID : 2
Format : AC-3
Format/Info : Audio Coding 3
Commercial name : Dolby Digital
Codec ID : A_AC3
Duration : 1 h 25 min
Bit rate mode : Constant
Bit rate : 192 kb/s
Channel(s) : 2 channels
Channel layout : L R
Sampling rate : 48.0 kHz
Frame rate : 31.250 FPS (1536 SPF)
Bit depth : 16 bits
Compression mode : Lossy
Stream size : 117 MiB (4%)
Language : Russian
Service kind : Complete Main
Default : Yes
Forced : No

Audio #2
ID : 3
Format : AC-3
Format/Info : Audio Coding 3
Commercial name : Dolby Digital
Codec ID : A_AC3
Duration : 1 h 25 min
Bit rate mode : Constant
Bit rate : 192 kb/s
Channel(s) : 1 channel
Channel layout : C
Sampling rate : 48.0 kHz
Frame rate : 31.250 FPS (1536 SPF)
Bit depth : 16 bits
Compression mode : Lossy
Stream size : 117 MiB (4%)
Language : Czech
Service kind : Complete Main
Default : No
Forced : No

Text #1
ID : 4
Format : UTF-8
Codec ID : S_TEXT/UTF8
Codec ID/Info : UTF-8 Plain Text
Duration : 1 h 24 min
Bit rate : 76 b/s
Count of elements : 830
Stream size : 47.1 KiB (0%)
Language : Russian
Default : No
Forced : No

Text #2
ID : 5
Format : UTF-8
Codec ID : S_TEXT/UTF8
Codec ID/Info : UTF-8 Plain Text
Duration : 1 h 24 min
Bit rate : 48 b/s
Count of elements : 827
Stream size : 29.8 KiB (0%)
Language : English
Default : No
Forced : No

Menu
00:00:00.000 : en:Chapter 1
00:06:47.234 : en:Chapter 2
00:09:39.135 : en:Chapter 3
00:11:49.103 : en:Chapter 4
00:18:22.737 : en:Chapter 5
00:24:32.037 : en:Chapter 6
00:33:49.237 : en:Chapter 7
00:49:01.804 : en:Chapter 8
00:55:39.971 : en:Chapter 9
01:03:07.171 : en:Chapter 10
01:11:56.538 : en:Chapter 11
01:17:47.472 : en:Chapter 12
01:22:44.605 : en:Chapter 13
01:24:59.473 : en:Chapter 14
01:24:59.873 : en:Chapter 15



Автор: Cthulhu
Просьба отключить блокировщики рекламы на странице скриншотов по адресу: http://3.lostpic.net/, этим Вы поможете существованию проекта. Заранее спасибо!
КУБКИ

СТАЖ

МЕДАЛИ
Награды:112

Пожизненный VIP+ (2) За активную помощь проекту (18) Лучший по количеству кубков (2) За отличные раздачи и качество (58) За подробное оформление раздач (1) За отличные комментарии (7) Почётный форумчанин (3) Верный Сид (20)

Аватара пользователя
СССР
Cthulhu
Помощник Администратора-Корсар
Раздачи группы KORSAR разрешено перезаливать спустя 7 дней после публикации и с обязательным добавлением банера
  • Торрент
Для скачивания торрента необходимо зарегистрироваться или войти на трекер.

Сообщение dzalaev » 05 июн 2019, 07:49

Уважаемый Cthulhu, большое Вам спасибо за отличный релиз! :hi: Превосходный рип раннего шедевра классика мирового кинематографа Милоша Формана. :good: Не умаляя достоинств более поздних работ снятых в Америке ("Пролетая над гнездом кукушки", "Амадей" и пр.), своими любимыми фильмами считаю ранние работы мэтра снятые в Чехословакии ("Чёрный Петр", "Любовные похождения блондинки" и "Бал пожарных"), как наиболее искренние, снятые с тонким чувством юмора и иронии, светлые и легкие фильмы. :10 balov: :respect:
КУБКИ

СТАЖ

МЕДАЛИ
Награды:20

За активную помощь проекту (3) За отличные раздачи и качество (2) За отличные комментарии (11) Почётный форумчанин (1) Верный Сид (3)

Аватара пользователя
СССР
dzalaev
Уважаемый Корсар

Сообщение verybigpapa » 05 июн 2019, 08:24

Уважаемый Cthulhu, большое спасибо. :hi: :respect:
Улыбайтесь, господа! Улыбайтесь!
КУБКИ

СТАЖ

МЕДАЛИ
Награды:69

Пожизненный VIP+ (1) За активную помощь проекту (27) Лучший по количеству кубков (9) За отличные раздачи и качество (1) За отличные комментарии (12) Почётный форумчанин (1) Верный Сид (18)

Аватара пользователя
СССР
verybigpapa
Заслуженный Корсар-Вип+


Вернуться в Классика зарубежного кино (фильмы до 1980 года)



Uptime по данным Ping-Admin.Ru - сервиса мониторинга доступности сайтов
Рейтинг@Mail.ru