logo
Международный русскоязычный
торрент-трекер
Menu
Поделиться с друзьями: 
Голосуй за Корсар и получи 500 дублонов
Рейтинг торрент трекеров - UpTracker.ru

Любовь с ограничениями (2016, Комедия, мелодрама, BDRip 720p) | Лицензия

Сообщение Gogen » 17 июн 2017, 05:11

Оригинальное название: Любовь с ограничениями
Год выхода: 2016
Жанр: Комедия, мелодрама
Режиссер: Дмитрий Тюрин
В ролях: Павел Прилучный, Анна Старшенбаум, Илья Глинников, Алексей Чадов, Алексей Воробьёв, Кирилл Плетнёв, Сергей Кутергин, Тимур Боканча, Ксения Иванова, Павел Шевандо
О фильме: Однажды самый обычный парень Миша узнает об указе Президента России, по которому в крупных компаниях должно работать два процента людей с ограниченными возможностями. И тут в его «светлую» голову приходит идея, как воплотить свою давнюю мечту о богатой и беззаботной жизни. Не долго думая, Миша получает фиктивные медицинские документы, садится в коляску и едет на собеседование, и не куда-нибудь, а в сам «Нашгаз»! И, о чудо, им как раз не хватает одного человека до той самой квоты. Жизнь удалась! Престижная работа, большая зарплата, отличная квартира, весь мир открыт для него, только есть одно «но», одно маленькое ограничение — он должен постоянно быть в инвалидном кресле! И не просто быть в нем, он при этом еще не должен «спалиться».



Выпущено: Россия / Art Pictures Studio, ВайТ Медиа
Продолжительность: 01:42:38
Озвучивание: Оригинальное [Лицензия]
Файл
Формат: MKV
Качество: BDRip 720p
Видео: MPEG-4 AVC, 4620 kb/s, 1280x536
Аудио: Russian: AC3, 640 kb/s (6 ch) / DTS, 1509 kb/s (6 ch)
Субтитры: нет
Общее
Unique ID : 188464993167857264034236657986543767022 (0x8DC90991CE4E58EC80F899D6B67B4DEE)
Complete name : D:загрузкиLyubov.s.ogranicheniyami.2017.O.BDRip.720p.mkv
Format : Matroska
Format version : Version 2
File size : 4,85 Гбайт
Duration : 1 ч. 42 м.
Overall bit rate : 6768 Кбит/сек
Encoded date : UTC 2017-06-16 19:49:20
Writing application : mkvmerge v7.8.0 ('River Man') 32bit built on Apr 3 2015 12:11:22
Writing library : libebml v1.3.1 + libmatroska v1.4.2

Видео
ID : 1
Format : AVC
Format/Info : Advanced Video Codec
Format profile : High@L4.1
Format settings, CABAC : Да
Format settings, ReFrames : 12 кадров
Codec ID : V_MPEG4/ISO/AVC
Duration : 1 ч. 42 м.
Bit rate : 4620 Кбит/сек
Width : 1280 пикселей
Height : 536 пикселей
Display aspect ratio : 2,40:1
Frame rate mode : Постоянный
Frame rate : 24,000 кадра/сек
Color space : YUV
Chroma subsampling : 4:2:0
Bit depth : 8 бит
Scan type : Прогрессивная
Bits/(Pixel*Frame) : 0.281
Stream size : 3,22 Гбайт (66%)
Writing library : x264 core 146 r2538 121396c
Encoding settings : cabac=1 / ref=12 / deblock=1:-3:-3 / analyse=0x3:0x133 / me=umh / subme=11 / psy=1 / psy_rd=1.00:0.00 / mixed_ref=1 / me_range=32 / chroma_me=0 / trellis=2 / 8x8dct=1 / cqm=0 / deadzone=21,11 / fast_pskip=0 / chroma_qp_offset=-2 / threads=12 / lookahead_threads=1 / sliced_threads=0 / nr=0 / decimate=0 / interlaced=0 / bluray_compat=0 / constrained_intra=0 / bframes=9 / b_pyramid=2 / b_adapt=1 / b_bias=0 / direct=3 / weightb=1 / open_gop=0 / weightp=2 / keyint=240 / keyint_min=24 / scenecut=40 / intra_refresh=0 / rc=2pass / mbtree=0 / bitrate=4620 / ratetol=1.0 / qcomp=0.60 / qpmin=0 / qpmax=69 / qpstep=4 / cplxblur=20.0 / qblur=0.5 / ip_ratio=1.40 / pb_ratio=1.30 / aq=1:1.00
Language : Russian
Default : Да
Forced : Нет

Аудио #1
ID : 2
Format : AC-3
Format/Info : Audio Coding 3
Format settings, Endianness : Big
Codec ID : A_AC3
Duration : 1 ч. 42 м.
Bit rate mode : Постоянный
Bit rate : 640 Кбит/сек
Channel(s) : 6 каналов
Channel positions : Front: L C R, Side: L R, LFE
Sampling rate : 48,0 КГц
Frame rate : 31,250 кадров/сек (1536 spf)
Bit depth : 16 бит
Compression mode : С потерями
Stream size : 470 Мбайт (9%)
Title : @ac3
Language : Russian
Service kind : Complete Main
Default : Да
Forced : Нет

Аудио #2
ID : 3
Format : DTS
Format/Info : Digital Theater Systems
Mode : 16
Format settings, Endianness : Big
Codec ID : A_DTS
Duration : 1 ч. 42 м.
Bit rate mode : Постоянный
Bit rate : 1509 Кбит/сек
Channel(s) : 6 каналов
Channel positions : Front: L C R, Side: L R, LFE
Sampling rate : 48,0 КГц
Frame rate : 93,750 кадра/сек (512 spf)
Bit depth : 24 бит
Compression mode : С потерями
Stream size : 1,08 Гбайт (22%)
Title : @dts
Language : Russian
Default : Нет
Forced : Нет

Меню
00:00:00.000 : en:00:00:00.000
00:05:20.529 : en:00:05:20.529
00:13:17.714 : en:00:13:17.714
00:19:28.376 : en:00:19:28.376
00:27:18.554 : en:00:27:18.554
00:36:47.497 : en:00:36:47.497
00:42:52.570 : en:00:42:52.570
00:48:13.682 : en:00:48:13.682
00:55:09.515 : en:00:55:09.515
01:00:26.414 : en:01:00:26.414
01:06:06.296 : en:01:06:06.296
01:11:04.677 : en:01:11:04.677
01:14:51.320 : en:01:14:51.320
01:19:50.828 : en:01:19:50.828
01:25:02.055 : en:01:25:02.055
01:32:19.033 : en:01:32:19.033

КУБКИ

СТАЖ

МЕДАЛИ
Награды:67

Лучший по количеству кубков (14) За отличные раздачи и качество (36) За подробное оформление раздач (2) За отличные комментарии (7) Почётный форумчанин (2) Верный Сид (2)

Аватара пользователя
Russia
Gogen
Заслуженный Релизёр-Корсар
  • Торрент
Для скачивания торрента необходимо зарегистрироваться или войти на трекер.

Вернуться в Наше современное кино (HD Video)



Uptime по данным Ping-Admin.Ru - сервиса мониторинга доступности сайтов
Рейтинг@Mail.ru