logo
Международный русскоязычный
торрент-трекер
Menu

Doublon
Поделиться с друзьями: 
Голосуй за Корсар и получи 150 дублонов
Рейтинг торрент трекеров - UpTracker.ru

Любовь к собакам обязательна / Must Love Dogs (2005, Мелодрама, комедия, WEB-DL 1080p) - KORSAR

Сообщение mzma » 16 май 2018, 03:13

Название: Любовь к собакам обязательна
Оригинальное название: Must Love Dogs
Год выпуска: 2005
Выпущено: США, Team Todd, Ubu Productions, Warner Bros. Pictures Co.
Жанр: Мелодрама, комедия
Режиссер: Гари Дэвид Голдберг
В ролях: Дайан Лэйн, Джон Кьюсак, Элизабет Перкинс, Кристофер Пламмер, Дермот Малруни, Стокард Чэннинг, Али Хиллис, Брэд Хенке, Джули Гонсало, Гленн Хоуертон, Бен Шенкман, Джордана Спиро, Кирк Тратнер, Виктор Уэбстер, Майкл Спаунд, Уилл МакКормак, Тед Гриффин, Мэрилуиз Бёрк, Брэд Холл, Бобби Коулмэн, Эмма Прескотт, Джейден Соренсен

О фильме: Сара Нолан, учительница, которой уже за тридцать, недавно развелась. Теперь ее семья всерьез занялась поисками подходящего ей мужчины. Сестра Сары регистрирует ее в службе он-лайн знакомств, и главным требованием к искомому идеалу пишет "любовь к собакам обязательна". Но, по правде говоря, у Сары нет собаки, поэтому, когда свидание уже назначено, она берет собаку брата и идет в парк на встречу с Джейком Андерсеном... которому тоже пришлось одолжить собаку. Экранизация по произведению Клер Кук.



Продолжительность: 01:37:59
Перевод: Дублированный, профессиональный двухголосый
Субтитры: Русские, английские, финские
Навигация по главам: Есть

Качество: WEB-DL 1080p
Видео: MPEG-4 AVC, 6498 Кбит/сек, 1920x800, 23,976 кадра/сек
Аудио #1: AC3, 6 ch, 384 Кбит/сек | Русский, профессиональный (полное дублирование) Мосфильм-Мастер, 2005 год, DVD9
Аудио #2: AC3, 2 ch, 192 Кбит/сек | Русский, профессиональный (двухголосый закадровый)
Аудио #3: EAC3, 6 ch, 640 Кбит/сек | Английский, оригинал

Сборка:


Общее
Уникальный идентификатор : 237572018628719645189064073737521399538 (0xB2BAB4DABAEB9E32AB7BE456D95906F2)
Полное имя : Любовь.к.собакам.обязательна.2005.WEB-DL.1080p.mkv
Формат : Matroska
Версия формата : Version 2
Размер файла : 5,39 Гбайт
Продолжительность : 1 ч. 37 м.
Режим общего битрейта : Переменный
Общий поток : 7870 Кбит/сек
Дата кодирования : UTC 2018-05-15 20:35:36
Программа кодирования : mkvmerge v5.8.0 ('No Sleep / Pillow') built on Sep 2 2012 15:37:04
Библиотека кодирования : libebml v1.2.3 + libmatroska v1.3.0

Видео
Идентификатор : 1
Формат : AVC
Формат/Информация : Advanced Video Codec
Профиль формата : High@L4
Параметр CABAC формата : Да
Параметр ReFrames формата : 4 кадра
Идентификатор кодека : V_MPEG4/ISO/AVC
Продолжительность : 1 ч. 37 м.
Вид битрейта : Переменный
Битрейт : 6498 Кбит/сек
Максимальный битрейт : 15,0 Мбит/сек
Ширина : 1920 пикселей
Высота : 800 пикселей
Соотношение сторон : 2,40:1
Режим частоты кадров : Постоянный
Частота кадров : 23,976 (24000/1001) кадра/сек
Цветовое пространство : YUV
Субдискретизация насыщенности : 4:2:0
Битовая глубина : 8 бит
Тип развёртки : Прогрессивная
Бит/(Пиксели*Кадры) : 0.176
Размер потока : 4,45 Гбайт (83%)
Язык : English
Default : Да
Forced : Нет
Цветовой диапазон : Limited
Основные цвета : BT.709
Характеристики трансфера : BT.709
Коэффициенты матрицы : BT.709

Аудио #1
Идентификатор : 2
Формат : AC-3
Формат/Информация : Audio Coding 3
Параметр Endianness формата : Big
Идентификатор кодека : A_AC3
Продолжительность : 1 ч. 37 м.
Вид битрейта : Постоянный
Битрейт : 384 Кбит/сек
Каналы : 6 каналов
Расположение каналов : Front: L C R, Side: L R, LFE
Частота : 48,0 КГц
Частота кадров : 31,250 кадров/сек (1536 spf)
Битовая глубина : 16 бит
Метод сжатия : С потерями
Размер потока : 269 Мбайт (5%)
Заголовок : DUB | Мосфильм-Мастер
Язык : Russian
По умолчанию : Да
Принудительно : Нет

Аудио #2
Идентификатор : 3
Формат : AC-3
Формат/Информация : Audio Coding 3
Параметр Endianness формата : Big
Идентификатор кодека : A_AC3
Продолжительность : 1 ч. 37 м.
Вид битрейта : Постоянный
Битрейт : 192 Кбит/сек
Каналы : 2 канала
Расположение каналов : Front: L R
Частота : 48,0 КГц
Частота кадров : 31,250 кадров/сек (1536 spf)
Битовая глубина : 16 бит
Метод сжатия : С потерями
Размер потока : 135 Мбайт (2%)
Заголовок : DVO
Язык : Russian
По умолчанию : Нет
Принудительно : Нет

Аудио #3
Идентификатор : 4
Формат : E-AC-3
Формат/Информация : Enhanced Audio Coding 3
Параметр Endianness формата : Big
Идентификатор кодека : A_EAC3
Продолжительность : 1 ч. 37 м.
Вид битрейта : Постоянный
Битрейт : 640 Кбит/сек
Каналы : 6 каналов
Расположение каналов : Front: L C R, Side: L R, LFE
Частота : 48,0 КГц
Частота кадров : 187,500 кадров/сек (256 spf)
Метод сжатия : С потерями
Размер потока : 449 Мбайт (8%)
Заголовок : Original
Язык : English
По умолчанию : Нет
Принудительно : Нет

Текст #1
Идентификатор : 5
Формат : UTF-8
Идентификатор кодека : S_TEXT/UTF8
Идентификатор кодека/Информация : UTF-8 Plain Text
Заголовок : Forced
Язык : Russian
По умолчанию : Да
Принудительно : Нет

Текст #2
Идентификатор : 6
Формат : UTF-8
Идентификатор кодека : S_TEXT/UTF8
Идентификатор кодека/Информация : UTF-8 Plain Text
Заголовок : Full
Язык : Russian
По умолчанию : Нет
Принудительно : Нет

Текст #3
Идентификатор : 7
Формат : UTF-8
Идентификатор кодека : S_TEXT/UTF8
Идентификатор кодека/Информация : UTF-8 Plain Text
Заголовок : Full
Язык : English
По умолчанию : Нет
Принудительно : Нет

Текст #4
Идентификатор : 8
Формат : UTF-8
Идентификатор кодека : S_TEXT/UTF8
Идентификатор кодека/Информация : UTF-8 Plain Text
Заголовок : SDH
Язык : English
По умолчанию : Нет
Принудительно : Нет

Текст #5
Идентификатор : 9
Формат : UTF-8
Идентификатор кодека : S_TEXT/UTF8
Идентификатор кодека/Информация : UTF-8 Plain Text
Заголовок : Full
Язык : Finnish
По умолчанию : Нет
Принудительно : Нет

Меню
00:00:00.000 : en:Credits
00:02:04.624 : en:Divorced Duo
00:05:51.184 : en:Benched
00:10:20.953 : en:Mr. Incorrigible
00:14:00.089 : en:My Dad's Date
00:18:30.901 : en:On Offense on the Web
00:22:01.528 : en:Short Attention Spans
00:25:48.964 : en:Dog Park Rendezvous
00:29:59.756 : en:Hello, Dolly - and Bobby
00:33:26.671 : en:Happy Singalong
00:36:56.631 : en:Second Shots
00:40:11.283 : en:Everybody Except Us
00:45:57.463 : en:Date Reports
00:51:11.401 : en:Brown Penny
00:54:23.218 : en:Never Ready
00:57:25.442 : en:Just Friends
01:02:10.727 : en:Too Many Men
01:07:34.633 : en:Pole and Tap Dancing
01:12:54.578 : en:Guys Like You
01:18:30.997 : en:Cheer Me Up
01:21:30.969 : en:Not Quite Zhivago
01:26:29.767 : en:Nice Turn of Phrase
01:29:39.832 : en:Today's Special
01:33:29.979 : en:End Credits

• Исходник видео WEB-DL Amazon.
• Субтитры:
1. Русские - форсированные, на надписи, на армянскую речь и небольшой комментарий в финальных титрах.
2. Русские - полные.
3. Английские - полные.
4. Английские - для слабослышащих (SDH).
5. Финские - полные.
Английские - вшитые, хардсаб, неотключаемые, на армянскую речь и небольшой комментарий в финальных титрах.
Аватара пользователя
mzma
Заслуженный Корсар-Вип
 
 

Награды: 58
За помощь проекту (2) Лучший по количеству кубков (5) За отличные раздачи и качество (34) За подробное оформление раздач (10) Верный Сид (7)
Раздачи группы KORSAR разрешено перезаливать спустя сутки после публикации
  • Торрент
Для скачивания торрента необходимо зарегистрироваться или войти на трекер.

Вернуться в Зарубежное кино (2001-2010 / HD Video)



Uptime по данным Ping-Admin.Ru - сервиса мониторинга доступности сайтов
Рейтинг@Mail.ru